Начать новую тему Ответить на тему
Статистика раздачи
Размер: 948.11 МБ | Добавлен: 23 май 2019, 20:06 | Скачали: 0
Сидеров: 0  [0 байт/сек]    Личеров: 0  [0 байт/сек]
Пред. тема | След. тема 

Автор
Сообщение

СообщениеДобавлено: 23 май 2019, 20:06 

Ответить с цитатой 

Bootcamp - The Non-Stop Power Mix Vol.1
Жанр: Eurodance
Носитель: CD
Страна-производитель диска: Germany
Год издания: 2012
Издатель (лейбл): Pure Pleasure Music GmbH
Номер по каталогу: N/N
Аудиокодек: FLAC (*.flac)
Тип рипа: image+.cue
Битрейт аудио: lossless
Продолжительность: CD-1 1:03:46 ; CD-2 0:59:21
Источник (релизер): Собственный рип
Наличие сканов в содержимом раздачи: да
Треклист:
01 Intro
02 Snoop Dogg - Sweat
03 Christopher S. - Are U Ready For This?
04 Chris Crime - Ready Or Not?
05 Daniel Bovie & Roy Rox - Love Me
06 Mike Candys & Jack Holiday - Show Me Love
07 Michael Mind - Ride Like The Wind
08 The Nightcrawlers - Push The Feeling On (Player & Remady Remix)
09 London Beat vs Silver Screen - I've Been Thinking About You
10 Mike Candys & Jack Holiday - Insomnia
11 DJ's @ Work - No Easy Way Out
12 Filter Funk - S.O.S. (Message In A Bottle)
13 Jack Holiday - Love For You
14 PH Electro - Englishman In New York
15 2-4 Grooves - Like The Way I Do
16 Crew 7 - Eye Of The Tiger
17 The Caramel Club - Mama Say Mama Sa
18 LA Syndicate - Levels (Clone Mix)
19 Jazzstics - Personal Jesus
20 Karen Souza - Every Breath You Take
Код:
Exact Audio Copy V1.0 beta 3 from 29. August 2011
Отчёт EAC об извлечении, выполненном 23. июля 2014, 12:28
Various Artists / Bootcamp - The Non-Stop Power Mix  CD - 1
Дисковод: PLEXTOR BD-R  PX-B950SA   Adapter: 0  ID: 4
Режим чтения                 : Достоверность
Использование точного потока : Да
Отключение кэша аудио        : Да
Использование указателей C2  : Нет
Коррекция смещения при чтении                     : 6
Способность читать области Lead-in и Lead-out     : Нет
Заполнение пропущенных сэмплов тишиной            : Да
Удаление блоков с тишиной в начале и конце        : Нет
При вычислениях CRC использовались нулевые сэмплы : Да
Интерфейс                                         : Встроенный Win32-интерфейс для Win NT/2000
Выходной формат          : Пользовательский кодировщик
Выбранный битрейт        : 1024 kBit/s
Качество                 : Высокий
Добавление ID3-тега      : Нет
Утилита сжатия           : N:\ПРОГРАММЫ\Exact Audio Copy\FLAC\FLAC.EXE
Дополнительные параметры : -6 -V -T "ARTIST=%artist%" -T "TITLE=%title%" -T "ALBUM=%albumtitle%" -T "DATE=%year%" -T "TRACKNUMBER=%tracknr%" -T "GENRE=%genre%" -T "COMMENT=%comment%" -T "BAND=%albuminterpret%" -T "ALBUMARTIST=%albuminterpret%" -T "COMPOSER=%composer%" %haslyrics%--tag-from-file=LYRICS="%lyricsfile%"%haslyrics% -T "DISCNUMBER=%cdnumber%" -T "TOTALDISCS=%totalcds%" -T "TOTALTRACKS=%numtracks%" %hascover%--picture="%coverfile%"%hascover% %source% -o %dest%
TOC извлечённого CD
     Трек |   Старт  | Длительность | Начальный сектор | Конечный сектор
    ---------------------------------------------------------------------
       1  |  0:00.00 |    0:11.48   |           0      |        872
       2  |  0:11.48 |    3:31.19   |         873      |      16716
       3  |  3:42.67 |    2:36.36   |       16717      |      28452
       4  |  6:19.28 |    3:19.08   |       28453      |      43385
       5  |  9:38.36 |    4:30.15   |       43386      |      63650
       6  | 14:08.51 |    3:33.24   |       63651      |      79649
       7  | 17:42.00 |    3:33.23   |       79650      |      95647
       8  | 21:15.23 |    3:18.70   |       95648      |     110567
       9  | 24:34.18 |    4:01.61   |      110568      |     128703
      10  | 28:36.04 |    3:19.20   |      128704      |     143648
      11  | 31:55.24 |    2:36.26   |      143649      |     155374
      12  | 34:31.50 |    3:05.02   |      155375      |     169251
      13  | 37:36.52 |    3:47.44   |      169252      |     186320
      14  | 41:24.21 |    2:36.34   |      186321      |     198054
      15  | 44:00.55 |    2:50.48   |      198055      |     210852
      16  | 46:51.28 |    4:30.15   |      210853      |     231117
      17  | 51:21.43 |    3:04.72   |      231118      |     244989
      18  | 54:26.40 |    3:31.18   |      244990      |     260832
      19  | 57:57.58 |    3:24.18   |      260833      |     276150
      20  | 61:22.01 |    2:47.60   |      276151      |     288735
Характеристики диапазона извлечения и сообщения об ошибках
Выбранный диапазон
     Имя файла N:\ТОРРЕНТЫ\BOOTCAMP Vol. 1\CD - 1\Various Artists - Bootcamp - The Non-Stop Power Mix  CD - 1.wav
     Пиковый уровень 100.0 %
     Скорость извлечения 7.7 X
     Качество диапазона 100.0 %
     CRC теста 4D6E7C45
     CRC копии 4D6E7C45
     Копирование... OK
Ошибок не произошло
AccurateRip: сводка
Трек  1  отсутствует в базе данных
Трек  2  отсутствует в базе данных
Трек  3  отсутствует в базе данных
Трек  4  отсутствует в базе данных
Трек  5  отсутствует в базе данных
Трек  6  отсутствует в базе данных
Трек  7  отсутствует в базе данных
Трек  8  отсутствует в базе данных
Трек  9  отсутствует в базе данных
Трек 10  отсутствует в базе данных
Трек 11  отсутствует в базе данных
Трек 12  отсутствует в базе данных
Трек 13  отсутствует в базе данных
Трек 14  отсутствует в базе данных
Трек 15  отсутствует в базе данных
Трек 16  отсутствует в базе данных
Трек 17  отсутствует в базе данных
Трек 18  отсутствует в базе данных
Трек 19  отсутствует в базе данных
Трек 20  отсутствует в базе данных
Ни одного трека нет в базе AccurateRip
Конец отчёта
---- CUETools DB Plugin V2.1.3
[CTDB TOCID: G2A_wbDJI9YYe_JPiKoAp1S0JM4-] found, Submit result: G2A_wbDJI9YYe_JPiKoAp1S0JM4- has been confirmed
[683495b2] (1/1) Accurately ripped
==== Контрольная сумма отчёта 8D593CC104284747BA5BC397F6CD013306D9B7EAFF0D976DF2E9A85C71AFE24E ====
Код:
REM GENRE Dance
REM DATE 2012
REM DISCID 200F0914
REM COMMENT "ExactAudioCopy v1.0b3"
PERFORMER "Various Artists"
TITLE "Bootcamp - The Non-Stop Power Mix  CD - 1"
FILE "Various Artists - Bootcamp - The Non-Stop Power Mix  CD - 1.flac" WAVE
  TRACK 01 AUDIO
    TITLE "Intro"
    PERFORMER "Various Artists"
    INDEX 01 00:00:00
  TRACK 02 AUDIO
    TITLE "Sweat "
    PERFORMER "Snoop Dogg*"
    INDEX 01 00:11:48
  TRACK 03 AUDIO
    TITLE "Are U Ready For This?"
    PERFORMER "Christopher S."
    INDEX 01 03:42:67
  TRACK 04 AUDIO
    TITLE "Ready Or Not?"
    PERFORMER "Chris Crime "
    INDEX 01 06:19:28
  TRACK 05 AUDIO
    TITLE "Love Me"
    PERFORMER "Daniel Bovie & Roy Rox"
    INDEX 01 09:38:36
  TRACK 06 AUDIO
    TITLE "Show Me Love"
    PERFORMER "Mike Candys & Jack Holiday"
    INDEX 01 14:08:51
  TRACK 07 AUDIO
    TITLE "Ride Like The Wind"
    PERFORMER "Michael Mind"
    INDEX 01 17:42:00
  TRACK 08 AUDIO
    TITLE "Push The Feeling On "
    PERFORMER "The Nightcrawlers"
    INDEX 01 21:15:23
  TRACK 09 AUDIO
    TITLE "I've Been Thinking About You"
    PERFORMER "London Beat vs Silver Screen"
    INDEX 01 24:34:18
  TRACK 10 AUDIO
    TITLE "Insomnia"
    PERFORMER "Mike Candys & Jack Holiday"
    INDEX 01 28:36:04
  TRACK 11 AUDIO
    TITLE "No Easy Way Out"
    PERFORMER "DJ's @ Work"
    INDEX 01 31:55:24
  TRACK 12 AUDIO
    TITLE "S.O.S. "
    PERFORMER "Filter Funk"
    INDEX 01 34:31:50
  TRACK 13 AUDIO
    TITLE "Love For You"
    PERFORMER "Jack Holiday"
    INDEX 01 37:36:52
  TRACK 14 AUDIO
    TITLE "Englishman In New York"
    PERFORMER "PH Electro"
    INDEX 01 41:24:21
  TRACK 15 AUDIO
    TITLE "Like The Way I Do"
    PERFORMER "2-4 Grooves"
    INDEX 01 44:00:55
  TRACK 16 AUDIO
    TITLE "Eye Of The Tiger"
    PERFORMER "Crew 7"
    INDEX 01 46:51:28
  TRACK 17 AUDIO
    TITLE "Mama Say Mama Sa"
    PERFORMER "The Caramel Club"
    INDEX 01 51:21:43
  TRACK 18 AUDIO
    TITLE "Levels "
    PERFORMER "LA Syndicate"
    INDEX 01 54:26:40
  TRACK 19 AUDIO
    TITLE "Personal Jesus "
    PERFORMER "Jazzstics"
    INDEX 01 57:57:58
  TRACK 20 AUDIO
    TITLE "Every Breath You Take"
    PERFORMER "Karen Souza"
    INDEX 01 61:22:01
Код:
Exact Audio Copy V1.0 beta 3 from 29. August 2011
Отчёт EAC об извлечении, выполненном 23. июля 2014, 14:05
Various Artists / Bootcamp -The Non-Stop Power Mix  CD - 2
Дисковод: PLEXTOR BD-R  PX-B950SA   Adapter: 0  ID: 4
Режим чтения                 : Достоверность
Использование точного потока : Да
Отключение кэша аудио        : Да
Использование указателей C2  : Нет
Коррекция смещения при чтении                     : 6
Способность читать области Lead-in и Lead-out     : Нет
Заполнение пропущенных сэмплов тишиной            : Да
Удаление блоков с тишиной в начале и конце        : Нет
При вычислениях CRC использовались нулевые сэмплы : Да
Интерфейс                                         : Встроенный Win32-интерфейс для Win NT/2000
Выходной формат          : Пользовательский кодировщик
Выбранный битрейт        : 1024 kBit/s
Качество                 : Высокий
Добавление ID3-тега      : Нет
Утилита сжатия           : N:\ПРОГРАММЫ\Exact Audio Copy\FLAC\FLAC.EXE
Дополнительные параметры : -6 -V -T "ARTIST=%artist%" -T "TITLE=%title%" -T "ALBUM=%albumtitle%" -T "DATE=%year%" -T "TRACKNUMBER=%tracknr%" -T "GENRE=%genre%" -T "COMMENT=%comment%" -T "BAND=%albuminterpret%" -T "ALBUMARTIST=%albuminterpret%" -T "COMPOSER=%composer%" %haslyrics%--tag-from-file=LYRICS="%lyricsfile%"%haslyrics% -T "DISCNUMBER=%cdnumber%" -T "TOTALDISCS=%totalcds%" -T "TOTALTRACKS=%numtracks%" %hascover%--picture="%coverfile%"%hascover% %source% -o %dest%
TOC извлечённого CD
     Трек |   Старт  | Длительность | Начальный сектор | Конечный сектор
    ---------------------------------------------------------------------
       1  |  0:00.00 |    0:11.46   |           0      |        870
       2  |  0:11.46 |    3:21.06   |         871      |      15951
       3  |  3:32.52 |    2:37.68   |       15952      |      27794
       4  |  6:10.45 |    3:04.22   |       27795      |      41616
       5  |  9:14.67 |    3:56.68   |       41617      |      59384
       6  | 13:11.60 |    3:17.29   |       59385      |      74188
       7  | 16:29.14 |    3:17.32   |       74189      |      88995
       8  | 19:46.46 |    3:17.33   |       88996      |     103803
       9  | 23:04.04 |    3:43.57   |      103804      |     120585
      10  | 26:47.61 |    2:51.09   |      120586      |     133419
      11  | 29:38.70 |    2:11.45   |      133420      |     143289
      12  | 31:50.40 |    2:51.12   |      143290      |     156126
      13  | 34:41.52 |    3:30.40   |      156127      |     171916
      14  | 38:12.17 |    2:37.72   |      171917      |     183763
      15  | 40:50.14 |    2:24.56   |      183764      |     194619
      16  | 43:14.70 |    4:10.04   |      194620      |     213373
      17  | 47:24.74 |    3:17.35   |      213374      |     228183
      18  | 50:42.34 |    2:46.12   |      228184      |     240645
      19  | 53:28.46 |    3:25.35   |      240646      |     256055
      20  | 56:54.06 |    2:47.63   |      256056      |     268643
Характеристики диапазона извлечения и сообщения об ошибках
Выбранный диапазон
     Имя файла N:\ТОРРЕНТЫ\BOOTCAMP Vol. 1\CD - 2\Various Artists - Bootcamp -The Non-Stop Power Mix  CD - 2.wav
     Пиковый уровень 100.0 %
     Скорость извлечения 7.4 X
     Качество диапазона 99.9 %
     CRC теста 28A575B4
     CRC копии 28A575B4
     Копирование... OK
Ошибок не произошло
AccurateRip: сводка
Трек  1  отсутствует в базе данных
Трек  2  отсутствует в базе данных
Трек  3  отсутствует в базе данных
Трек  4  отсутствует в базе данных
Трек  5  отсутствует в базе данных
Трек  6  отсутствует в базе данных
Трек  7  отсутствует в базе данных
Трек  8  отсутствует в базе данных
Трек  9  отсутствует в базе данных
Трек 10  отсутствует в базе данных
Трек 11  отсутствует в базе данных
Трек 12  отсутствует в базе данных
Трек 13  отсутствует в базе данных
Трек 14  отсутствует в базе данных
Трек 15  отсутствует в базе данных
Трек 16  отсутствует в базе данных
Трек 17  отсутствует в базе данных
Трек 18  отсутствует в базе данных
Трек 19  отсутствует в базе данных
Трек 20  отсутствует в базе данных
Ни одного трека нет в базе AccurateRip
Конец отчёта
---- CUETools DB Plugin V2.1.3
[CTDB TOCID: tWWtd6tYJ2un75NAkBfxF5_.12s-] disk not present in database, Submit result: tWWtd6tYJ2un75NAkBfxF5_.12s- has been uploaded
==== Контрольная сумма отчёта 2360E4FE796265B282416CEFA412714AFB018B92ECF9FAF2861355C0D03F5426 ====
Код:
REM GENRE Dance
REM DATE 2012
REM DISCID 150DFD14
REM COMMENT "ExactAudioCopy v1.0b3"
PERFORMER "Various Artists"
TITLE "Bootcamp -The Non-Stop Power Mix  CD - 2"
FILE "Various Artists - Bootcamp -The Non-Stop Power Mix  CD - 2.flac" WAVE
  TRACK 01 AUDIO
    TITLE "Intro"
    PERFORMER "Various Artists"
    INDEX 01 00:00:00
  TRACK 02 AUDIO
    TITLE "Sweat "
    PERFORMER "Snoop Dogg"
    INDEX 01 00:11:46
  TRACK 03 AUDIO
    TITLE "Are U Ready For This?"
    PERFORMER "Christopher S."
    INDEX 01 03:32:52
  TRACK 04 AUDIO
    TITLE "Ready Or Not?"
    PERFORMER "Chris Crime"
    INDEX 01 06:10:45
  TRACK 05 AUDIO
    TITLE "Love Me"
    PERFORMER "Daniel Bovie & Roy Rox"
    INDEX 01 09:14:67
  TRACK 06 AUDIO
    TITLE "Show Me Love"
    PERFORMER "Mike Candys & Jack Holiday"
    INDEX 01 13:11:60
  TRACK 07 AUDIO
    TITLE "Ride Like The Wind"
    PERFORMER "Michael Mind"
    INDEX 01 16:29:14
  TRACK 08 AUDIO
    TITLE "Push The Feeling On "
    PERFORMER "The Nightcrawlers"
    INDEX 01 19:46:46
  TRACK 09 AUDIO
    TITLE "I've Been Thinking About You"
    PERFORMER "London Beat vs Silver Screen"
    INDEX 01 23:04:04
  TRACK 10 AUDIO
    TITLE "Insomnia"
    PERFORMER "Mike Candys & Jack Holiday"
    INDEX 01 26:47:61
  TRACK 11 AUDIO
    TITLE "No Easy Way Out"
    PERFORMER "DJ's @ Work"
    INDEX 01 29:38:70
  TRACK 12 AUDIO
    TITLE "S.O.S. "
    PERFORMER "Filter Funk"
    INDEX 01 31:50:40
  TRACK 13 AUDIO
    TITLE "Love For You"
    PERFORMER "Jack Holiday"
    INDEX 01 34:41:52
  TRACK 14 AUDIO
    TITLE "Englishman In New York"
    PERFORMER "PH Electro"
    INDEX 01 38:12:17
  TRACK 15 AUDIO
    TITLE "Like The Way I Do"
    PERFORMER "2-4 Grooves"
    INDEX 01 40:50:14
  TRACK 16 AUDIO
    TITLE "Eye Of The Tiger"
    PERFORMER "Crew 7"
    INDEX 01 43:14:70
  TRACK 17 AUDIO
    TITLE "Mama Say Mama Sa"
    PERFORMER "The Caramel Club"
    INDEX 01 47:24:74
  TRACK 18 AUDIO
    TITLE "Levels "
    PERFORMER "LA Syndicate"
    INDEX 01 50:42:34
  TRACK 19 AUDIO
    TITLE "Personal Jesus "
    PERFORMER "Jazzstics"
    INDEX 01 53:28:46
  TRACK 20 AUDIO
    TITLE "Every Breath You Take"
    PERFORMER "Karen Souza"
    INDEX 01 56:54:06
Небольшая фирмочка move-ya c 1999 года занимается выпуском различных музыкальных программ для занятий фитнесом,аэробикой,йогой,пилатесом и т.д. В содружестве спортивных инструкторов и отличных диджеев появляются замечательные CD's , для музыкального сопровождения и мотивирования занятий спортом - дома и в спортивных залах .
В данной раздаче представлен микс , записанный дважды на двух дисках , но с разной скоростью звучания : CD-1 135 BPM и CD-2 145 BPM .....что позволяет выбирать нужную кардионагрузку ! .... Естественно ,я рипанул сей релиз чисто из музыкальных соображений .... Спасибо move-ya за их отличные работы !! (p.s. ссылка на официальный сайт релиза ниже ..)

Мои Italo-Disco-House (lossless) , Automatic D.J. Service Мои Eurodance - Euro-House (lossless)
Правила, инструкции, FAQ!!!
Торрент  Добавлен [23 май 2019, 20:06] Скачать торрент Магнет ссылка
Скачать торрент
[ Размер 20.18 КБ / Просмотров 6 ]

Статус
Проверен 
 
Размер  948.11 МБ
Приватный: Нет (DHT включён)
.torrent скачан  0
Как залить торрент? | Как скачать Torrent? | Ошибка в торренте? Качайте магнет  


     Отправить личное сообщение
   
Страница 1 из 1
Показать сообщения за:  Поле сортировки  
Начать новую тему Ответить на тему


Сейчас этот форум просматривают: нет зарегистрированных пользователей и гости: 0


Вы не можете начинать темы
Вы не можете отвечать на сообщения
Вы не можете редактировать свои сообщения
Вы не можете удалять свои сообщения
Вы не можете добавлять вложения

Перейти:  
Ресурс не предоставляет электронные версии произведений, а занимается лишь коллекционированием и каталогизацией ссылок, присылаемых и публикуемых на форуме нашими читателями. Если вы являетесь правообладателем какого-либо представленного материала и не желаете чтобы ссылка на него находилась в нашем каталоге, свяжитесь с нами и мы незамедлительно удалим её. Файлы для обмена на трекере предоставлены пользователями сайта, и администрация не несёт ответственности за их содержание. Просьба не заливать файлы, защищенные авторскими правами, а также файлы нелегального содержания!
cron