Начать новую тему Ответить на тему
Статистика раздачи
Размер: 545.87 МБ | Добавлен: 23 май 2019, 20:01 | Скачали: 0
Сидеров: 1  [0 байт/сек]    Личеров: 0  [0 байт/сек]
Пред. тема | След. тема 

Автор
Сообщение

СообщениеДобавлено: 23 май 2019, 20:01 

Ответить с цитатой 

Anita (ex 2 Unlimited) / Reality
Жанр: Eurodance
Страна-производитель диска: Holland
Год издания диска: 2000
Издатель (лейбл): Pleasure Records
Страна: Holland
Аудио кодек: APE (*.ape)
Тип рипа: image+.cue
Битрейт аудио: lossless
Продолжительность: 01:04:49
Источник (релизер): собственный диск
Наличие сканов в содержимом раздачи: да
Треклист:
01 This Is Reality
02 Lifting Up MY Life (original mix)
03 Open Up My Eyes
04 Only You
05 Lovin' Every Day
06 Say What You Mean
07 Universe (Believe in Yourself)
08 Virtual Love
09 Enter Love Delete The Hate
10 I'm Not Your Fool
11 Now Is The Time
12 I've Given You Everything
13 Why Should I Lie
14 Every Little Step
15 Lifting Up My Life (y2k mix)
Код:
Exact Audio Copy V0.99 prebeta 3 from 28. July 2007
Отчёт EAC об извлечении, выполненном 26. декабря 2010, 20:08
Anita (NL) / Reality
Дисковод: PIONEER DVD-RW  DVR-112D   Adapter: 1  ID: 0
Режим чтения                 : Достоверность
Использование точного потока : Да
Отключение кэша аудио        : Да
Использование указателей C2  : Нет
Коррекция смещения при чтении                     : 48
Способность читать области Lead-in и Lead-out     : Нет
Заполнение пропущенных сэмплов тишиной            : Да
Удаление блоков с тишиной в начале и конце        : Нет
При вычислениях CRC использовались нулевые сэмплы : Да
Интерфейс                                         : Встроенный Win32-интерфейс для Win NT/2000
Выходной формат : Внутренние WAV-операции
Формат сэмплов  : 44.100 Гц; 16 бит; стерео
TOC извлечённого CD
     Трек |   Старт  | Длительность | Начальный сектор | Конечный сектор
    ---------------------------------------------------------------------
       1  |  0:00.00 |    4:26.02   |           0      |      19951
       2  |  4:26.02 |    4:53.10   |       19952      |      41936
       3  |  9:19.12 |    3:52.50   |       41937      |      59386
       4  | 13:11.62 |    3:52.23   |       59387      |      76809
       5  | 17:04.10 |    5:11.42   |       76810      |     100176
       6  | 22:15.52 |    3:55.63   |      100177      |     117864
       7  | 26:11.40 |    5:33.70   |      117865      |     142909
       8  | 31:45.35 |    4:19.55   |      142910      |     162389
       9  | 36:05.15 |    4:35.17   |      162390      |     183031
      10  | 40:40.32 |    3:47.65   |      183032      |     200121
      11  | 44:28.22 |    3:57.05   |      200122      |     217901
      12  | 48:25.27 |    4:11.28   |      217902      |     236754
      13  | 52:36.55 |    5:39.42   |      236755      |     262221
      14  | 58:16.22 |    3:33.60   |      262222      |     278256
      15  | 61:50.07 |    2:59.10   |      278257      |     291691
Характеристики диапазона извлечения и сообщения об ошибках
Выбранный диапазон
     Имя файла G:\for tracker\Anita - 2000 - Reality\CDImage.wav
     Пиковый уровень 100.0 %
     Качество диапазона 99.9 %
     CRC теста BAE734E1
     CRC копии BAE734E1
     Копирование... OK
Ошибок не произошло
AccurateRip: сводка
Трек  1  нет в базе данных
Трек  2  нет в базе данных
Трек  3  нет в базе данных
Трек  4  нет в базе данных
Трек  5  нет в базе данных
Трек  6  нет в базе данных
Трек  7  нет в базе данных
Трек  8  нет в базе данных
Трек  9  нет в базе данных
Трек 10  нет в базе данных
Трек 11  нет в базе данных
Трек 12  нет в базе данных
Трек 13  нет в базе данных
Трек 14  нет в базе данных
Трек 15  нет в базе данных
Ни одного трека нет в базе AccurateRip
Конец отчёта
Доп. информация: Копия фирменного диска из моей коллекции
Правила, инструкции, FAQ!!!
Торрент  Добавлен [23 май 2019, 20:01] Скачать торрент Магнет ссылка
Скачать торрент
[ Размер 11.71 КБ / Просмотров 3 ]

Статус
Проверен 
 
Размер  545.87 МБ
Приватный: Нет (DHT включён)
.torrent скачан  0
Как залить торрент? | Как скачать Torrent? | Ошибка в торренте? Качайте магнет  


     Отправить личное сообщение
   
Страница 1 из 1
Показать сообщения за:  Поле сортировки  
Начать новую тему Ответить на тему


Сейчас этот форум просматривают: нет зарегистрированных пользователей и гости: 0


Вы не можете начинать темы
Вы не можете отвечать на сообщения
Вы не можете редактировать свои сообщения
Вы не можете удалять свои сообщения
Вы не можете добавлять вложения

Перейти:  
Ресурс не предоставляет электронные версии произведений, а занимается лишь коллекционированием и каталогизацией ссылок, присылаемых и публикуемых на форуме нашими читателями. Если вы являетесь правообладателем какого-либо представленного материала и не желаете чтобы ссылка на него находилась в нашем каталоге, свяжитесь с нами и мы незамедлительно удалим её. Файлы для обмена на трекере предоставлены пользователями сайта, и администрация не несёт ответственности за их содержание. Просьба не заливать файлы, защищенные авторскими правами, а также файлы нелегального содержания!
cron