Начать новую тему Ответить на тему
Статистика раздачи
Размер: 126.23 МБ | Добавлен: 23 май 2019, 20:02 | Скачали: 0
Сидеров: 0  [0 байт/сек]    Личеров: 0  [0 байт/сек]
Пред. тема | След. тема 

Автор
Сообщение

СообщениеДобавлено: 23 май 2019, 20:02 

Ответить с цитатой 

Anat - Without You
(CD-Maxi)
Жанр: Eurodance
Страна-производитель диска: Germany
Носитель: CDM
Год издания диска: 1996
Издатель (лейбл): ZYX Music
Номер по каталогу: ZYX 8084-8
Аудиокодек: FLAC (*.flac)
Тип рипа: image+.cue
Битрейт аудио: lossless
Продолжительность: 0:17:38
Источник (релизер): DENnv
Наличие сканов в содержимом раздачи: да, PNG (300 dpi)
Треклист:
1. Without You (Radio Edit) (4:12)
2. Without You (Original Version) (5:38)
3. Without You (Autumn Mix) (7:41)


Код:
Exact Audio Copy V0.99 prebeta 5 from 4. May 2009
Отчёт EAC об извлечении, выполненном 7. февраля 2012, 5:43
Anat / Without You (CDM)
Дисковод: LITE-ON DVDRW SHM-165P6S   Adapter: 0  ID: 0
Режим чтения                 : Достоверность
Использование точного потока : Да
Отключение кэша аудио        : Да
Использование указателей C2  : Нет
Коррекция смещения при чтении                     : 6
Способность читать области Lead-in и Lead-out     : Нет
Заполнение пропущенных сэмплов тишиной            : Да
Удаление блоков с тишиной в начале и конце        : Нет
При вычислениях CRC использовались нулевые сэмплы : Да
Интерфейс                                         : Встроенный Win32-интерфейс для Win NT/2000
Выходной формат : Внутренние WAV-операции
Формат сэмплов  : 44.100 Гц; 16 бит; стерео
TOC извлечённого CD
     Трек |   Старт  | Длительность | Начальный сектор | Конечный сектор
    ---------------------------------------------------------------------
       1  |  0:00.00 |    4:16.09   |           0      |      19208
       2  |  4:16.09 |    5:41.09   |       19209      |      44792
       3  |  9:57.18 |    7:40.72   |       44793      |      79364
Характеристики диапазона извлечения и сообщения об ошибках
Выбранный диапазон
     Имя файла E:\2222222222\Anat - Without You (CDM) (1996) (lossless-DENnv)\Anat - Without You (CDM).wav
     Пиковый уровень 94.9 %
     Качество диапазона 100.0 %
     CRC теста 19610187
     CRC копии 19610187
     Копирование... OK
Ошибок не произошло
AccurateRip: сводка
Трек  1  точное извлечение (доверие 2)  [B8EF786D]
Трек  2  точное извлечение (доверие 2)  [2870E717]
Трек  3  точное извлечение (доверие 2)  [6B65A091]
Все треки извлечены точно
Конец отчёта

Мой рип с фирменного диска, как и все мои лосслесс раздачи.

Ваши комментарии - лучший способ сподвигнуть релизёра раздавать новые рипы.

Раздача проходит под девизом:


Правила, инструкции, FAQ!!!
Торрент  Добавлен [23 май 2019, 20:02] Скачать торрент Магнет ссылка
Скачать торрент
[ Размер 20.61 КБ / Просмотров 3 ]

Статус
Проверен 
 
Размер  126.23 МБ
Приватный: Нет (DHT включён)
.torrent скачан  0
Как залить торрент? | Как скачать Torrent? | Ошибка в торренте? Качайте магнет  


     Отправить личное сообщение
   
Страница 1 из 1
Показать сообщения за:  Поле сортировки  
Начать новую тему Ответить на тему


Сейчас этот форум просматривают: нет зарегистрированных пользователей и гости: 0


Вы не можете начинать темы
Вы не можете отвечать на сообщения
Вы не можете редактировать свои сообщения
Вы не можете удалять свои сообщения
Вы не можете добавлять вложения

Перейти:  
Ресурс не предоставляет электронные версии произведений, а занимается лишь коллекционированием и каталогизацией ссылок, присылаемых и публикуемых на форуме нашими читателями. Если вы являетесь правообладателем какого-либо представленного материала и не желаете чтобы ссылка на него находилась в нашем каталоге, свяжитесь с нами и мы незамедлительно удалим её. Файлы для обмена на трекере предоставлены пользователями сайта, и администрация не несёт ответственности за их содержание. Просьба не заливать файлы, защищенные авторскими правами, а также файлы нелегального содержания!
cron