Начать новую тему Ответить на тему
Статистика раздачи
Размер: 395.72 МБ | Добавлен: 23 май 2019, 20:06 | Скачали: 0
Сидеров: 0  [0 байт/сек]    Личеров: 0  [0 байт/сек]
Пред. тема | След. тема 

Автор
Сообщение

СообщениеДобавлено: 23 май 2019, 20:06 

Ответить с цитатой 

Two In One – Best Of
Жанр: Euro-House
Страна-производитель диска: EU
Год издания диска: 2001
Издатель (лейбл): EMI Austria
Номер по каталогу: 7243 5 34172 2 2
Аудиокодек: FLAC (*.flac)
Тип рипа: image+.cue
Битрейт аудио: lossless
Продолжительность: 54:36
Источник (релизер): Audio CD
Наличие сканов в содержимом раздачи: да
Треклист:
01. Indian Song [0:03:30.86]
02. Makeema [0:04:28.89]
03. Wave Your Hands In The Air [0:03:32.70]
04. Like A Dream [0:03:38.26]
05. Hamma Heyah Ho [0:03:59.93]
06. Taste Of Love [0:04:04.80]
07. Video Killed The Radio Star [0:03:49.29]
08. Saturday Night [0:03:24.80]
09. Glamorous Life [0:04:16.20]
10. Mama Africa [0:03:22.26]
11. Now And Forever [0:03:43.50]
12. Dancer [0:04:09.86]
13. Habanera [0:03:22.73]
14. Energy Of Love (Japan Remix) [0:05:11.96]
Код:
Exact Audio Copy V0.99 prebeta 5 from 4. May 2009
EAC extraction logfile from 23. January 2012, 18:03
Two In One / Best Of
Used drive  : SONY    DVD RW DRX-S70U   Adapter: 2  ID: 1
Read mode               : Secure
Utilize accurate stream : Yes
Defeat audio cache      : Yes
Make use of C2 pointers : No
Read offset correction                      : 48
Overread into Lead-In and Lead-Out          : No
Fill up missing offset samples with silence : Yes
Delete leading and trailing silent blocks   : No
Null samples used in CRC calculations       : Yes
Used interface                              : Native Win32 interface for Win NT & 2000
Used output format : Internal WAV Routines
Sample format      : 44.100 Hz; 16 Bit; Stereo
TOC of the extracted CD
     Track |   Start  |  Length  | Start sector | End sector
    ---------------------------------------------------------
        1  |  0:00.00 |  3:30.65 |         0    |    15814
        2  |  3:30.65 |  4:28.67 |     15815    |    35981
        3  |  7:59.57 |  3:32.53 |     35982    |    51934
        4  | 11:32.35 |  3:38.20 |     51935    |    68304
        5  | 15:10.55 |  3:59.70 |     68305    |    86299
        6  | 19:10.50 |  4:04.60 |     86300    |   104659
        7  | 23:15.35 |  3:49.22 |    104660    |   121856
        8  | 27:04.57 |  3:24.60 |    121857    |   137216
        9  | 30:29.42 |  4:16.15 |    137217    |   156431
       10  | 34:45.57 |  3:22.20 |    156432    |   171601
       11  | 38:08.02 |  3:43.38 |    171602    |   188364
       12  | 41:51.40 |  4:09.65 |    188365    |   207104
       13  | 46:01.30 |  3:22.55 |    207105    |   222309
       14  | 49:24.10 |  5:11.72 |    222310    |   245706
Range status and errors
Selected range
     Filename C:\Users\Fancy\Desktop\Two In One - Best Of.wav
     Peak level 97.9 %
     Range quality 100.0 %
     Test CRC EC153A68
     Copy CRC EC153A68
     Copy OK
No errors occurred
AccurateRip summary
Track  1  not present in database
Track  2  not present in database
Track  3  not present in database
Track  4  not present in database
Track  5  not present in database
Track  6  not present in database
Track  7  not present in database
Track  8  not present in database
Track  9  not present in database
Track 10  not present in database
Track 11  not present in database
Track 12  not present in database
Track 13  not present in database
Track 14  not present in database
None of the tracks are present in the AccurateRip database
End of status report
Код:
REM GENRE Euro-House
REM DATE 2001
REM DISCID BE0CCC0E
REM COMMENT "ExactAudioCopy v0.99pb5"
PERFORMER "Two In One"
TITLE "Best Of"
FILE "Two In One - Best Of.flac" WAVE
  TRACK 01 AUDIO
    TITLE "Indian Song"
    PERFORMER "Two In One"
    INDEX 01 00:00:00
  TRACK 02 AUDIO
    TITLE "Makeema"
    PERFORMER "Two In One"
    INDEX 01 03:30:65
  TRACK 03 AUDIO
    TITLE "Wave Your Hands In The Air"
    PERFORMER "Two In One"
    INDEX 01 07:59:57
  TRACK 04 AUDIO
    TITLE "Like A Dream"
    PERFORMER "Two In One"
    INDEX 01 11:32:35
  TRACK 05 AUDIO
    TITLE "Hamma Heyah Ho"
    PERFORMER "Two In One"
    INDEX 01 15:10:55
  TRACK 06 AUDIO
    TITLE "Taste Of Love"
    PERFORMER "Two In One"
    INDEX 01 19:10:50
  TRACK 07 AUDIO
    TITLE "Video Killed The Radio Star"
    PERFORMER "Two In One"
    INDEX 01 23:15:35
  TRACK 08 AUDIO
    TITLE "Saturday Night"
    PERFORMER "Two In One"
    INDEX 01 27:04:57
  TRACK 09 AUDIO
    TITLE "Glamorous Life"
    PERFORMER "Two In One"
    INDEX 01 30:29:42
  TRACK 10 AUDIO
    TITLE "Mama Africa"
    PERFORMER "Two In One"
    INDEX 01 34:45:57
  TRACK 11 AUDIO
    TITLE "Now And Forever"
    PERFORMER "Two In One"
    INDEX 01 38:08:02
  TRACK 12 AUDIO
    TITLE "Dancer"
    PERFORMER "Two In One"
    INDEX 01 41:51:40
  TRACK 13 AUDIO
    TITLE "Habanera"
    PERFORMER "Two In One"
    INDEX 01 46:01:30
  TRACK 14 AUDIO
    TITLE "Energy Of Love (Japan Remix)"
    PERFORMER "Two In One"
    INDEX 01 49:24:10
Код:
AUDIOCHECKER v2.0 beta (build 457) - by Dester - opdester@freemail.hu
~~~~~~~~~~~~~~~~~~~~~~~~~~~~~~~~~~
Started at: Monday, 23. 01. 2012. - 18:06.28
14 files found
01 -===- track 1 in drive HL-DT-STDVDRAM GSA-T50N
  Track ripped successfully
  Conclusion: this track is CDDA with probability 100%
  Tempfile successfully deleted.
02 -===- track 2 in drive HL-DT-STDVDRAM GSA-T50N
  Track ripped successfully
  Conclusion: this track is CDDA with probability 100%
  Tempfile successfully deleted.
03 -===- track 3 in drive HL-DT-STDVDRAM GSA-T50N
  Track ripped successfully
  Conclusion: this track is CDDA with probability 100%
  Tempfile successfully deleted.
04 -===- track 4 in drive HL-DT-STDVDRAM GSA-T50N
  Track ripped successfully
  Conclusion: this track is CDDA with probability 99%
  Tempfile successfully deleted.
05 -===- track 5 in drive HL-DT-STDVDRAM GSA-T50N
  Track ripped successfully
  Conclusion: this track is CDDA with probability 100%
  Tempfile successfully deleted.
06 -===- track 6 in drive HL-DT-STDVDRAM GSA-T50N
  Track ripped successfully
  Conclusion: this track is CDDA with probability 99%
  Tempfile successfully deleted.
07 -===- track 7 in drive HL-DT-STDVDRAM GSA-T50N
  Track ripped successfully
  Conclusion: this track is CDDA with probability 99%
  Tempfile successfully deleted.
08 -===- track 8 in drive HL-DT-STDVDRAM GSA-T50N
  Track ripped successfully
  Conclusion: this track is CDDA with probability 100%
  Tempfile successfully deleted.
09 -===- track 9 in drive HL-DT-STDVDRAM GSA-T50N
  Track ripped successfully
  Conclusion: this track is CDDA with probability 100%
  Tempfile successfully deleted.
10 -===- track 10 in drive HL-DT-STDVDRAM GSA-T50N
  Track ripped successfully
  Conclusion: this track is CDDA with probability 100%
  Tempfile successfully deleted.
11 -===- track 11 in drive HL-DT-STDVDRAM GSA-T50N
  Track ripped successfully
  Conclusion: this track is CDDA with probability 100%
  Tempfile successfully deleted.
12 -===- track 12 in drive HL-DT-STDVDRAM GSA-T50N
  Track ripped successfully
  Conclusion: this track is CDDA with probability 100%
  Tempfile successfully deleted.
13 -===- track 13 in drive HL-DT-STDVDRAM GSA-T50N
  Track ripped successfully
  Conclusion: this track is CDDA with probability 100%
  Tempfile successfully deleted.
14 -===- track 14 in drive HL-DT-STDVDRAM GSA-T50N
  Track ripped successfully
  Conclusion: this track is CDDA with probability 100%
  Tempfile successfully deleted.
Finished at: Monday, 23. 01. 2012. - 18:49.02 (operation time: 0:42.33)
http://www.discogs.com/Two-In-One-Best-Of/release/2353689
Правила, инструкции, FAQ!!!
Торрент  Добавлен [23 май 2019, 20:06] Скачать торрент Магнет ссылка
Скачать торрент
[ Размер 16.22 КБ / Просмотров 3 ]

Статус
Проверен 
 
Размер  395.72 МБ
Приватный: Нет (DHT включён)
.torrent скачан  0
Как залить торрент? | Как скачать Torrent? | Ошибка в торренте? Качайте магнет  


     Отправить личное сообщение
   
Страница 1 из 1
Показать сообщения за:  Поле сортировки  
Начать новую тему Ответить на тему


Сейчас этот форум просматривают: нет зарегистрированных пользователей и гости: 0


Вы не можете начинать темы
Вы не можете отвечать на сообщения
Вы не можете редактировать свои сообщения
Вы не можете удалять свои сообщения
Вы не можете добавлять вложения

Перейти:  
Ресурс не предоставляет электронные версии произведений, а занимается лишь коллекционированием и каталогизацией ссылок, присылаемых и публикуемых на форуме нашими читателями. Если вы являетесь правообладателем какого-либо представленного материала и не желаете чтобы ссылка на него находилась в нашем каталоге, свяжитесь с нами и мы незамедлительно удалим её. Файлы для обмена на трекере предоставлены пользователями сайта, и администрация не несёт ответственности за их содержание. Просьба не заливать файлы, защищенные авторскими правами, а также файлы нелегального содержания!
cron