Начать новую тему Ответить на тему
Статистика раздачи
Размер: 190.38 МБ | Добавлен: 23 май 2019, 20:01 | Скачали: 0
Сидеров: 0  [0 байт/сек]    Личеров: 0  [0 байт/сек]
Пред. тема | След. тема 

Автор
Сообщение

СообщениеДобавлено: 23 май 2019, 20:01 

Ответить с цитатой 

E'voke / Arms Of Loren
Жанр: Euro House, Trance
Страна-производитель диска: UK
Год издания диска: 1996
Издатель (лейбл): Manifesto
Номер по каталогу: FESCD 10
Страна: UK
Аудиокодек: FLAC (*.flac)
Тип рипа: tracks+.cue
Битрейт аудио: lossless
Продолжительность: 00:26:28
Источник (релизер): Accell/Accelz0r
Наличие сканов в содержимом раздачи: нет
Треклист:
1. Arms Of Loren (Nip 'N' Tuck Edit) [4:25]
2. Arms Of Loren (Nip 'N' Tuck Original) [8:08]
3. Arms Of Loren (Steinway Remix) [5:48]
4. Arms Of Loren (Nip 'N' Tuck Instrumental) [8:07]
http://www.discogs.com/Evoke-Arms-Of-Loren/release/147175
Код:
Exact Audio Copy V1.0 beta 2 from 29. April 2011
EAC extraction logfile from 16. September 2011, 14:54
E'Voke / Arms of Loren
Used drive  : HL-DT-STDVDRAM GSA-T50N   Adapter: 1  ID: 0
Read mode               : Secure
Utilize accurate stream : Yes
Defeat audio cache      : Yes
Make use of C2 pointers : No
Read offset correction                      : 667
Overread into Lead-In and Lead-Out          : No
Fill up missing offset samples with silence : Yes
Delete leading and trailing silent blocks   : No
Null samples used in CRC calculations       : Yes
Used interface                              : Native Win32 interface for Win NT & 2000
Gap handling                                : Appended to previous track
Used output format : Internal WAV Routines
Sample format      : 44.100 Hz; 16 Bit; Stereo
TOC of the extracted CD
     Track |   Start  |  Length  | Start sector | End sector
    ---------------------------------------------------------
        1  |  0:00.00 |  4:25.52 |         0    |    19926
        2  |  4:25.52 |  8:08.58 |     19927    |    56584
        3  | 12:34.35 |  5:48.05 |     56585    |    82689
        4  | 18:22.40 |  8:07.60 |     82690    |   119274
Track  1
     Filename C:\Users\Eric\01 - Arms of Loren (Nip 'N' Tuck Edit).wav
     Pre-gap length  0:00:02.00
     Peak level 98.0 %
     Extraction speed 2.5 X
     Track quality 100.0 %
     Test CRC DEB5BC70
     Copy CRC DEB5BC70
     Accurately ripped (confidence 3)  [72555CA9]  (AR v1)
     Copy OK
Track  2
     Filename C:\Users\Eric\02 - Arms of Loren (Nip 'N' Tuck Original).wav
     Pre-gap length  0:00:00.02
     Peak level 98.0 %
     Extraction speed 3.0 X
     Track quality 100.0 %
     Test CRC 68F4497D
     Copy CRC 68F4497D
     Accurately ripped (confidence 4)  [32CF539A]  (AR v1)
     Copy OK
Track  3
     Filename C:\Users\Eric\03 - Arms of Loren (Steinway Mix).wav
     Pre-gap length  0:00:00.03
     Peak level 98.0 %
     Extraction speed 3.1 X
     Track quality 100.0 %
     Test CRC BDFE6E3A
     Copy CRC BDFE6E3A
     Accurately ripped (confidence 4)  [928C37AD]  (AR v1)
     Copy OK
Track  4
     Filename C:\Users\Eric\04 - Arms of Loren (Nip 'N' Tuck Instrumental).wav
     Pre-gap length  0:00:00.03
     Peak level 98.0 %
     Extraction speed 3.7 X
     Track quality 100.0 %
     Test CRC 0E920FF0
     Copy CRC 0E920FF0
     Accurately ripped (confidence 4)  [278AC18D]  (AR v1)
     Copy OK
All tracks accurately ripped
No errors occurred
End of status report
Код:
REM GENRE Dance
REM DATE 1996
REM DISCID 29063604
REM COMMENT "ExactAudioCopy v1.0b2"
PERFORMER "E'voke"
TITLE "Arms Of Loren"
FILE "01 - Arms Of Loren (Nip 'N' Tuck Edit).wav" WAVE
  TRACK 01 AUDIO
    TITLE "Arms Of Loren (Nip 'N' Tuck Edit)"
    PERFORMER "E'voke"
    ISRC GBF089601067
    INDEX 01 00:00:00
  TRACK 02 AUDIO
    TITLE "Arms Of Loren (Nip 'N' Tuck Original)"
    PERFORMER "E'voke"
    ISRC GBF089601063
    INDEX 00 04:25:50
FILE "02 - Arms Of Loren (Nip 'N' Tuck Original).wav" WAVE
    INDEX 01 00:00:00
  TRACK 03 AUDIO
    TITLE "Arms Of Loren (Steinway Mix)"
    PERFORMER "E'voke"
    ISRC GBF089601064
    INDEX 00 08:08:55
FILE "03 - Arms Of Loren (Steinway Mix).wav" WAVE
    INDEX 01 00:00:00
  TRACK 04 AUDIO
    TITLE "Arms Of Loren (Nip 'N' Tuck Instrumental)"
    PERFORMER "E'voke"
    ISRC GBF089601066
    INDEX 00 05:48:02
FILE "04 - Arms Of Loren (Nip 'N' Tuck Instrumental).wav" WAVE
    INDEX 01 00:00:00
Правила, инструкции, FAQ!!!
Торрент  Добавлен [23 май 2019, 20:01] Скачать торрент Магнет ссылка
Скачать торрент
[ Размер 15.93 КБ / Просмотров 4 ]

Статус
Проверен 
 
Размер  190.38 МБ
Приватный: Нет (DHT включён)
.torrent скачан  0
Как залить торрент? | Как скачать Torrent? | Ошибка в торренте? Качайте магнет  


     Отправить личное сообщение
   
Страница 1 из 1
Показать сообщения за:  Поле сортировки  
Начать новую тему Ответить на тему


Сейчас этот форум просматривают: нет зарегистрированных пользователей и гости: 0


Вы не можете начинать темы
Вы не можете отвечать на сообщения
Вы не можете редактировать свои сообщения
Вы не можете удалять свои сообщения
Вы не можете добавлять вложения

Перейти:  
Ресурс не предоставляет электронные версии произведений, а занимается лишь коллекционированием и каталогизацией ссылок, присылаемых и публикуемых на форуме нашими читателями. Если вы являетесь правообладателем какого-либо представленного материала и не желаете чтобы ссылка на него находилась в нашем каталоге, свяжитесь с нами и мы незамедлительно удалим её. Файлы для обмена на трекере предоставлены пользователями сайта, и администрация не несёт ответственности за их содержание. Просьба не заливать файлы, защищенные авторскими правами, а также файлы нелегального содержания!
cron