Начать новую тему Ответить на тему
Статистика раздачи
Размер: 114.18 МБ | Добавлен: 23 май 2019, 20:06 | Скачали: 0
Сидеров: 0  [0 байт/сек]    Личеров: 0  [0 байт/сек]
Пред. тема | След. тема 

Автор
Сообщение

СообщениеДобавлено: 23 май 2019, 20:06 

Ответить с цитатой 

Onda Del Futuro - Disperazione (CDM)
Жанр: Euro House, Trance, Tech House
Страна-производитель диска: Germany
Год издания диска: 1993
Издатель (лейбл): On The Edge
Номер по каталогу: 74321 12945 2
Страна: Germany
Аудио кодек: FLAC (*.flac)
Тип рипа: tracks+.cue
Битрейт аудио: lossless
Продолжительность: 0:18:58
Источник (релизер): Рип диска из собственной коллекции
Наличие сканов в содержимом раздачи: нет
Треклист:
1 Disperazione (Trance Version) 6:26
2 Disperazione (TechHouse Version) 6:09
3 Disperazione (House Version) 6:20

Код:
Exact Audio Copy V1.0 beta 1 from 15. November 2010
EAC extraction logfile from 31. January 2011, 19:45
Onda Del Futuro / Disperazione
Used drive  : ASUS    DRW-1814BLT   Adapter: 0  ID: 3
Read mode               : Secure
Utilize accurate stream : Yes
Defeat audio cache      : Yes
Make use of C2 pointers : No
Read offset correction                      : 6
Overread into Lead-In and Lead-Out          : No
Fill up missing offset samples with silence : Yes
Delete leading and trailing silent blocks   : No
Null samples used in CRC calculations       : Yes
Used interface                              : Native Win32 interface for Win NT & 2000
Gap handling                                : Appended to previous track
Used output format              : User Defined Encoder
Selected bitrate                : 896 kBit/s
Quality                         : High
Add ID3 tag                     : No
Command line compressor         : C:\Program Files\Exact Audio Copy\FLAC\FLAC.EXE
Additional command line options : -6 -V -T "ARTIST=%a" -T "TITLE=%t" -T "ALBUM=%g" -T "DATE=%y" -T "TRACKNUMBER=%n" -T "GENRE=%m" -T "COMMENT=%e" %j--picture="%i"%j %s -o %d
TOC of the extracted CD
     Track |   Start  |  Length  | Start sector | End sector
    ---------------------------------------------------------
        1  |  0:00.00 |  6:27.17 |         0    |    29041
        2  |  6:27.17 |  6:12.23 |     29042    |    56964
        3  | 12:39.40 |  6:19.02 |     56965    |    85391
Track  1
     Filename G:\Torrent\Onda Del Futuro - Disperazione (1993) - FLAC\1. Onda Del Futuro - Disperazione (Trance Version).wav
     Pre-gap length  0:00:02.00
     Peak level 85.7 %
     Extraction speed 5.6 X
     Track quality 100.0 %
     Test CRC 8E85F9B6
     Copy CRC 8E85F9B6
     Accurately ripped (confidence 1)  [18A3B6B0]
     Copy OK
Track  2
     Filename G:\Torrent\Onda Del Futuro - Disperazione (1993) - FLAC\2. Onda Del Futuro - Disperazione (TechHouse Version).wav
     Pre-gap length  0:00:01.45
     Peak level 94.0 %
     Extraction speed 6.4 X
     Track quality 100.0 %
     Test CRC E4F380E2
     Copy CRC E4F380E2
     Accurately ripped (confidence 1)  [6291AA2C]
     Copy OK
Track  3
     Filename G:\Torrent\Onda Del Futuro - Disperazione (1993) - FLAC\3. Onda Del Futuro - Disperazione (House Version).wav
     Pre-gap length  0:00:02.03
     Peak level 94.4 %
     Extraction speed 7.2 X
     Track quality 100.0 %
     Test CRC F39AC242
     Copy CRC F39AC242
     Accurately ripped (confidence 1)  [E9541E78]
     Copy OK
All tracks accurately ripped
No errors occurred
End of status report
Код:
REM GENRE Rave
REM DATE 1993
REM DISCID 24047203
REM COMMENT "ExactAudioCopy v1.0b1"
PERFORMER "Onda Del Futuro"
TITLE "Disperazione"
FILE "1. Onda Del Futuro - Disperazione (Trance Version).wav" WAVE
  TRACK 01 AUDIO
    TITLE "Disperazione (Trance Version)"
    PERFORMER "Onda Del Futuro"
    INDEX 01 00:00:00
  TRACK 02 AUDIO
    TITLE "Disperazione (TechHouse Version)"
    PERFORMER "Onda Del Futuro"
    INDEX 00 06:25:47
FILE "2. Onda Del Futuro - Disperazione (TechHouse Version).wav" WAVE
    INDEX 01 00:00:00
  TRACK 03 AUDIO
    TITLE "Disperazione (House Version)"
    PERFORMER "Onda Del Futuro"
    INDEX 00 06:10:20
FILE "3. Onda Del Futuro - Disperazione (House Version).wav" WAVE
    INDEX 01 00:00:00
Правила, инструкции, FAQ!!!
Торрент  Добавлен [23 май 2019, 20:06] Скачать торрент Магнет ссылка
Скачать торрент
[ Размер 18.85 КБ / Просмотров 2 ]

Статус
Проверен 
 
Размер  114.18 МБ
Приватный: Нет (DHT включён)
.torrent скачан  0
Как залить торрент? | Как скачать Torrent? | Ошибка в торренте? Качайте магнет  


     Отправить личное сообщение
   
Страница 1 из 1
Показать сообщения за:  Поле сортировки  
Начать новую тему Ответить на тему


Сейчас этот форум просматривают: нет зарегистрированных пользователей и гости: 0


Вы не можете начинать темы
Вы не можете отвечать на сообщения
Вы не можете редактировать свои сообщения
Вы не можете удалять свои сообщения
Вы не можете добавлять вложения

Перейти:  
Ресурс не предоставляет электронные версии произведений, а занимается лишь коллекционированием и каталогизацией ссылок, присылаемых и публикуемых на форуме нашими читателями. Если вы являетесь правообладателем какого-либо представленного материала и не желаете чтобы ссылка на него находилась в нашем каталоге, свяжитесь с нами и мы незамедлительно удалим её. Файлы для обмена на трекере предоставлены пользователями сайта, и администрация не несёт ответственности за их содержание. Просьба не заливать файлы, защищенные авторскими правами, а также файлы нелегального содержания!
cron