Начать новую тему Ответить на тему
Статистика раздачи
Размер: 158.98 МБ | Добавлен: 23 май 2019, 20:07 | Скачали: 0
Сидеров: 0  [0 байт/сек]    Личеров: 0  [0 байт/сек]
Пред. тема | След. тема 

Автор
Сообщение

СообщениеДобавлено: 23 май 2019, 20:07 

Ответить с цитатой 

Onda Del Futuro - Terra (CDM)
Жанр: Euro House, Trance
Страна-производитель диска: Germany
Год издания диска: 1993
Издатель (лейбл): BMG Ariola München GmbH
Номер по каталогу: 74321 16668 2
Страна: Germany
Аудио кодек: FLAC (*.flac)
Тип рипа: tracks+.cue
Битрейт аудио: lossless
Продолжительность: 0:23:34
Источник (релизер): Рип диска из собственной коллекции
Наличие сканов в содержимом раздачи: 600 dpi
Треклист:
1 Terra (Radio Mix) 3:48
2 Terra (Extended Version) 7:22
3 Terra (Club Mix) 4:50
4 Terra (Instrumental) 7:22
Код:
Exact Audio Copy V1.0 beta 1 from 15. November 2010
EAC extraction logfile from 31. January 2011, 19:10
Onda Del Futuro / Terra
Used drive  : ASUS    DRW-1814BLT   Adapter: 0  ID: 3
Read mode               : Secure
Utilize accurate stream : Yes
Defeat audio cache      : Yes
Make use of C2 pointers : No
Read offset correction                      : 6
Overread into Lead-In and Lead-Out          : No
Fill up missing offset samples with silence : Yes
Delete leading and trailing silent blocks   : No
Null samples used in CRC calculations       : Yes
Used interface                              : Native Win32 interface for Win NT & 2000
Gap handling                                : Appended to previous track
Used output format              : User Defined Encoder
Selected bitrate                : 896 kBit/s
Quality                         : High
Add ID3 tag                     : No
Command line compressor         : C:\Program Files\Exact Audio Copy\FLAC\FLAC.EXE
Additional command line options : -6 -V -T "ARTIST=%a" -T "TITLE=%t" -T "ALBUM=%g" -T "DATE=%y" -T "TRACKNUMBER=%n" -T "GENRE=%m" -T "COMMENT=%e" %j--picture="%i"%j %s -o %d
TOC of the extracted CD
     Track |   Start  |  Length  | Start sector | End sector
    ---------------------------------------------------------
        1  |  0:00.00 |  3:47.47 |         0    |    17071
        2  |  3:47.47 |  7:27.50 |     17072    |    50646
        3  | 11:15.22 |  4:52.58 |     50647    |    72604
        4  | 16:08.05 |  7:26.07 |     72605    |   106061
Track  1
     Filename G:\Torrent\Onda Del Futuro - Terra (1993) - FLAC\1. Onda Del Futuro - Terra (Radio Mix).wav
     Pre-gap length  0:00:02.00
     Peak level 94.4 %
     Extraction speed 5.0 X
     Track quality 100.0 %
     Test CRC 04C153ED
     Copy CRC 04C153ED
     Track not present in AccurateRip database
     Copy OK
Track  2
     Filename G:\Torrent\Onda Del Futuro - Terra (1993) - FLAC\2. Onda Del Futuro - Terra (Extended Version).wav
     Pre-gap length  0:00:01.37
     Peak level 94.4 %
     Extraction speed 6.3 X
     Track quality 100.0 %
     Test CRC 2A5EFD79
     Copy CRC 2A5EFD79
     Track not present in AccurateRip database
     Copy OK
Track  3
     Filename G:\Torrent\Onda Del Futuro - Terra (1993) - FLAC\3. Onda Del Futuro - Terra (Club Mix).wav
     Pre-gap length  0:00:01.70
     Peak level 94.4 %
     Extraction speed 6.8 X
     Track quality 100.0 %
     Test CRC 111EB22F
     Copy CRC 111EB22F
     Track not present in AccurateRip database
     Copy OK
Track  4
     Filename G:\Torrent\Onda Del Futuro - Terra (1993) - FLAC\4. Onda Del Futuro - Terra (Instrumental).wav
     Pre-gap length  0:00:01.60
     Peak level 94.4 %
     Extraction speed 7.8 X
     Track quality 100.0 %
     Test CRC AE480C57
     Copy CRC AE480C57
     Track not present in AccurateRip database
     Copy OK
None of the tracks are present in the AccurateRip database
No errors occurred
End of status report
Код:
REM GENRE Rave
REM DATE 1993
REM DISCID 33058604
REM COMMENT "ExactAudioCopy v1.0b1"
PERFORMER "Onda Del Futuro"
TITLE "Terra"
FILE "1. Onda Del Futuro - Terra (Radio Mix).wav" WAVE
  TRACK 01 AUDIO
    TITLE "Terra (Radio Mix)"
    PERFORMER "Onda Del Futuro"
    INDEX 01 00:00:00
  TRACK 02 AUDIO
    TITLE "Terra (Extended Version)"
    PERFORMER "Onda Del Futuro"
    INDEX 00 03:46:10
FILE "2. Onda Del Futuro - Terra (Extended Version).wav" WAVE
    INDEX 01 00:00:00
  TRACK 03 AUDIO
    TITLE "Terra (Club Mix)"
    PERFORMER "Onda Del Futuro"
    INDEX 00 07:25:55
FILE "3. Onda Del Futuro - Terra (Club Mix).wav" WAVE
    INDEX 01 00:00:00
  TRACK 04 AUDIO
    TITLE "Terra (Instrumental)"
    PERFORMER "Onda Del Futuro"
    INDEX 00 04:50:73
FILE "4. Onda Del Futuro - Terra (Instrumental).wav" WAVE
    INDEX 01 00:00:00
Правила, инструкции, FAQ!!!
Торрент  Добавлен [23 май 2019, 20:07] Скачать торрент Магнет ссылка
Скачать торрент
[ Размер 13.36 КБ / Просмотров 4 ]

Статус
Проверен 
 
Размер  158.98 МБ
Приватный: Нет (DHT включён)
.torrent скачан  0
Как залить торрент? | Как скачать Torrent? | Ошибка в торренте? Качайте магнет  


     Отправить личное сообщение
   
Страница 1 из 1
Показать сообщения за:  Поле сортировки  
Начать новую тему Ответить на тему


Сейчас этот форум просматривают: нет зарегистрированных пользователей и гости: 0


Вы не можете начинать темы
Вы не можете отвечать на сообщения
Вы не можете редактировать свои сообщения
Вы не можете удалять свои сообщения
Вы не можете добавлять вложения

Перейти:  
Ресурс не предоставляет электронные версии произведений, а занимается лишь коллекционированием и каталогизацией ссылок, присылаемых и публикуемых на форуме нашими читателями. Если вы являетесь правообладателем какого-либо представленного материала и не желаете чтобы ссылка на него находилась в нашем каталоге, свяжитесь с нами и мы незамедлительно удалим её. Файлы для обмена на трекере предоставлены пользователями сайта, и администрация не несёт ответственности за их содержание. Просьба не заливать файлы, защищенные авторскими правами, а также файлы нелегального содержания!
cron