Начать новую тему Ответить на тему
Статистика раздачи
Размер: 339.82 МБ | Добавлен: 23 май 2019, 20:06 | Скачали: 0
Сидеров: 0  [0 байт/сек]    Личеров: 0  [0 байт/сек]
Пред. тема | След. тема 

Автор
Сообщение

СообщениеДобавлено: 23 май 2019, 20:06 

Ответить с цитатой 

Klubbingman Featuring Trixi Delgado - Love Message (CDM) (Germany)
Жанр: Euro House, Trance
Страна-производитель диска: Germany
Год издания диска: 2005
Издатель (лейбл): Klubbstyle Media
Номер по каталогу: 535.9002.3
Аудио кодек: FLAC (*.flac)
Тип рипа: image+.cue
Битрейт аудио: lossless
Продолжительность: 39:56
Источник (релизер): собственный рип
Наличие сканов в содержимом раздачи: да
Треклист:
01. Love Message (Original Radio Cut) (3:36)
02. Love Message (Tune Up! Vs. DJ Manian Remix Edit) (3:27)
03. Love Message (Original Club Mix) (8:05)
04. Love Message (Tune Up! Vs. DJ Manian Remix) (5:29)
05. Love Message (Klubbstylerz Remix) (6:48)
06. Love Message (Liquid Spill Merge Remix) (6:41)
07. Love Message (Para X Aka Van Roezel Remix) (5:50)
Код:
Exact Audio Copy V1.0 beta 1 from 15. November 2010
Отчёт EAC об извлечении, выполненном 16. мая 2011, 12:23
Klubbingman Featuring Trixi Delgado / Love Message (CDM) (Germany)
Дисковод: PLEXTOR DVDR   PX-L890SA   Adapter: 3  ID: 1
Режим чтения                 : Достоверность
Использование точного потока : Да
Отключение кэша аудио        : Да
Использование указателей C2  : Нет
Коррекция смещения при чтении                     : 6
Способность читать области Lead-in и Lead-out     : Нет
Заполнение пропущенных сэмплов тишиной            : Да
Удаление блоков с тишиной в начале и конце        : Нет
При вычислениях CRC использовались нулевые сэмплы : Да
Интерфейс                                         : Встроенный Win32-интерфейс для Win NT/2000
Выходной формат          : Пользовательский кодировщик
Выбранный битрейт        : 896 kBit/s
Качество                 : Высокий
Добавление ID3-тега      : Нет
Утилита сжатия           : C:\Program Files (x86)\Exact Audio Copy\Flac\flac.exe
Дополнительные параметры : -8 -V %s
TOC извлечённого CD
     Трек |   Старт  | Длительность | Начальный сектор | Конечный сектор
    ---------------------------------------------------------------------
       1  |  0:00.00 |    3:35.71   |           0      |      16195
       2  |  3:35.71 |    3:26.69   |       16196      |      31714
       3  |  7:02.65 |    8:05.32   |       31715      |      68121
       4  | 15:08.22 |    5:28.56   |       68122      |      92777
       5  | 20:37.03 |    6:48.13   |       92778      |     123390
       6  | 27:25.16 |    6:41.31   |      123391      |     153496
       7  | 34:06.47 |    5:49.50   |      153497      |     179721
Характеристики диапазона извлечения и сообщения об ошибках
Выбранный диапазон
     Имя файла M:\Свои\Klubbingman\Singles\2005 - Love Message (CDM) (Germany)\Klubbingman Featuring Trixi Delgado - 2005 - Love Message (CDM) (Germany).wav
     Пиковый уровень 100.0 %
     Скорость извлечения 0.2 X
     Качество диапазона 100.0 %
     CRC теста 6AB034EF
     CRC копии 6AB034EF
     Копирование... OK
Ошибок не произошло
AccurateRip: сводка
Трек  1  : извлечено точно (доверие 1)  [3D29D18E]
Трек  2  : извлечено точно (доверие 1)  [21D21C7C]
Трек  3  : извлечено точно (доверие 1)  [840CA497]
Трек  4  : извлечено точно (доверие 1)  [51CA2E22]
Трек  5  : извлечено точно (доверие 1)  [7313F41C]
Трек  6  : извлечено точно (доверие 1)  [93B96B27]
Трек  7  : извлечено точно (доверие 1)  [BC6B60F7]
Все треки извлечены точно
Конец отчёта
Правила, инструкции, FAQ!!!
Торрент  Добавлен [23 май 2019, 20:06] Скачать торрент Магнет ссылка
Скачать торрент
[ Размер 14.52 КБ / Просмотров 3 ]

Статус
Проверен 
 
Размер  339.82 МБ
Приватный: Нет (DHT включён)
.torrent скачан  0
Как залить торрент? | Как скачать Torrent? | Ошибка в торренте? Качайте магнет  


     Отправить личное сообщение
   
Страница 1 из 1
Показать сообщения за:  Поле сортировки  
Начать новую тему Ответить на тему


Сейчас этот форум просматривают: нет зарегистрированных пользователей и гости: 0


Вы не можете начинать темы
Вы не можете отвечать на сообщения
Вы не можете редактировать свои сообщения
Вы не можете удалять свои сообщения
Вы не можете добавлять вложения

Перейти:  
Ресурс не предоставляет электронные версии произведений, а занимается лишь коллекционированием и каталогизацией ссылок, присылаемых и публикуемых на форуме нашими читателями. Если вы являетесь правообладателем какого-либо представленного материала и не желаете чтобы ссылка на него находилась в нашем каталоге, свяжитесь с нами и мы незамедлительно удалим её. Файлы для обмена на трекере предоставлены пользователями сайта, и администрация не несёт ответственности за их содержание. Просьба не заливать файлы, защищенные авторскими правами, а также файлы нелегального содержания!
cron