Начать новую тему Ответить на тему
Статистика раздачи
Размер: 421.27 МБ | Добавлен: 23 май 2019, 20:07 | Скачали: 0
Сидеров: 0  [0 байт/сек]    Личеров: 0  [0 байт/сек]
Пред. тема | След. тема 

Автор
Сообщение

СообщениеДобавлено: 23 май 2019, 20:07 

Ответить с цитатой 


Belle Lawrence - Never Trust a Stranger /
I Think We're Alone Now

(CD-Maxi)
Жанр: Euro House / Trance
Страна-производитель диска: UK
Год издания диска: 2005
Издатель (лейбл): Almighty Records
Номер по каталогу: CDALMY198
Аудиокодек: FLAC (*.flac)
Тип рипа: image+.cue
Битрейт аудио: lossless
Продолжительность: 0:59:13
Источник (релизер): DENnv
Наличие сканов в содержимом раздачи: да, PNG (300 dpi)
Треклист:
1. Never Trust A Stranger (Almighty Definitive Radio Edit) (4:13)
2. Never Trust A Stranger (Almighty Definitive Mix) (6:25)
3. Never Trust A Stranger (Almighty Filtered Anthem Mix) (7:29)
4. Never Trust A Stranger (Almighty Anthem Mix) (7:15)
5. Never Trust A Stranger (Almighty Anthem Dub) (7:02)
6. Never Trust A Stranger (Almighty Classic Mix) (7:53)
7. I Think We're Alone Now (Almighty Definitive Mix) (6:57)
8. I Think We're Alone Now (Almighty Transensual Mix) (6:10)
9. Spinning 'Round (5:50)


Код:
Exact Audio Copy V0.99 prebeta 5 from 4. May 2009
Отчёт EAC об извлечении, выполненном 16. февраля 2012, 21:12
Belle Lawrence / Never Trust a Stranger / I Think We're Alone Now (CDM)
Дисковод: LITE-ON DVDRW SHM-165P6S   Adapter: 0  ID: 0
Режим чтения                 : Достоверность
Использование точного потока : Да
Отключение кэша аудио        : Да
Использование указателей C2  : Нет
Коррекция смещения при чтении                     : 6
Способность читать области Lead-in и Lead-out     : Нет
Заполнение пропущенных сэмплов тишиной            : Да
Удаление блоков с тишиной в начале и конце        : Нет
При вычислениях CRC использовались нулевые сэмплы : Да
Интерфейс                                         : Встроенный Win32-интерфейс для Win NT/2000
Выходной формат : Внутренние WAV-операции
Формат сэмплов  : 44.100 Гц; 16 бит; стерео
TOC извлечённого CD
     Трек |   Старт  | Длительность | Начальный сектор | Конечный сектор
    ---------------------------------------------------------------------
       1  |  0:00.00 |    4:12.41   |           0      |      18940
       2  |  4:12.41 |    6:24.69   |       18941      |      47809
       3  | 10:37.35 |    7:29.30   |       47810      |      81514
       4  | 18:06.65 |    7:15.15   |       81515      |     114154
       5  | 25:22.05 |    7:02.03   |      114155      |     145807
       6  | 32:24.08 |    7:52.45   |      145808      |     181252
       7  | 40:16.53 |    6:56.45   |      181253      |     212497
       8  | 47:13.23 |    6:10.03   |      212498      |     240250
       9  | 53:23.26 |    5:50.19   |      240251      |     266519
Характеристики диапазона извлечения и сообщения об ошибках
Выбранный диапазон
     Имя файла E:\2222222222\NEW\Belle Lawrence - Never Trust a Stranger-I Think We're Alone Now (CDM) (2005) (lossless-DENnv)\Belle Lawrence - Never Trust a Stranger-I Think We're Alone Now (CDM).wav
     Пиковый уровень 99.0 %
     Качество диапазона 100.0 %
     CRC теста A036AA44
     CRC копии A036AA44
     Копирование... OK
Ошибок не произошло
AccurateRip: сводка
Трек  1  точное извлечение (доверие 1)  [2EEFE980]
Трек  2  нет в базе данных
Трек  3  нет в базе данных
Трек  4  нет в базе данных
Трек  5  нет в базе данных
Трек  6  нет в базе данных
Трек  7  нет в базе данных
Трек  8  нет в базе данных
Трек  9  нет в базе данных
 1 трек(и) скопированы точно
 8 трек(и) не содержатся в базе AccurateRip
Некоторые треки не прошли проверку на точность
Конец отчёта

Мой рип с фирменного диска, как и все мои лосслесс раздачи.
"СПАСИБО!" и разносторонние комментарии
будут приятны и не дадут теме уйти в неизвестность.
И, конечно, сподвигнут релизёра рипать и раздавать новые диски.

Молчание качающих провоцирует лень релизёра. Учтите это!


Раздача проходит под девизом:


Правила, инструкции, FAQ!!!
Торрент  Добавлен [23 май 2019, 20:07] Скачать торрент Магнет ссылка
Скачать торрент
[ Размер 17.7 КБ / Просмотров 3 ]

Статус
Проверен 
 
Размер  421.27 МБ
Приватный: Нет (DHT включён)
.torrent скачан  0
Как залить торрент? | Как скачать Torrent? | Ошибка в торренте? Качайте магнет  


     Отправить личное сообщение
   
Страница 1 из 1
Показать сообщения за:  Поле сортировки  
Начать новую тему Ответить на тему


Сейчас этот форум просматривают: нет зарегистрированных пользователей и гости: 0


Вы не можете начинать темы
Вы не можете отвечать на сообщения
Вы не можете редактировать свои сообщения
Вы не можете удалять свои сообщения
Вы не можете добавлять вложения

Перейти:  
Ресурс не предоставляет электронные версии произведений, а занимается лишь коллекционированием и каталогизацией ссылок, присылаемых и публикуемых на форуме нашими читателями. Если вы являетесь правообладателем какого-либо представленного материала и не желаете чтобы ссылка на него находилась в нашем каталоге, свяжитесь с нами и мы незамедлительно удалим её. Файлы для обмена на трекере предоставлены пользователями сайта, и администрация не несёт ответственности за их содержание. Просьба не заливать файлы, защищенные авторскими правами, а также файлы нелегального содержания!
cron