Начать новую тему Ответить на тему
Статистика раздачи
Размер: 107.67 МБ | Добавлен: 23 май 2019, 20:08 | Скачали: 0
Сидеров: 0  [0 байт/сек]    Личеров: 0  [0 байт/сек]
Пред. тема | След. тема 

Автор
Сообщение

СообщениеДобавлено: 23 май 2019, 20:08 

Ответить с цитатой 

The Winning Team / Olé Olé Olé Olé (CDM)
Жанр: Euro House
Страна-производитель диска: Германия
Год издания диска: 1993
Издатель (лейбл): DJ's Delight
Номер по каталогу: DJD 8038-2
Страна: Германия
Аудиокодек: FLAC (*.flac)
Тип рипа: image+.cue
Битрейт аудио: lossless
Продолжительность: 11 мин 48 сек
Источник (релизер): Рип собственного диска
Наличие сканов в содержимом раздачи: да
Треклист:
1. Olé Olé Olé Olé (Radio Edit) 2:57
2. Olé Olé Olé Olé (Elastic Mix) 5:30
3. All Night 3:12
4. Bonus Track 0:09
Код:
Exact Audio Copy V1.0 beta 1 from 15. November 2010
EAC extraction logfile from 17. August 2011, 7:50
The Winning Team / Ole Ole Ole Ole
Used drive  : ASUS    DRW-24B3ST   Adapter: 3  ID: 0
Read mode               : Secure
Utilize accurate stream : Yes
Defeat audio cache      : Yes
Make use of C2 pointers : No
Read offset correction                      : 6
Overread into Lead-In and Lead-Out          : No
Fill up missing offset samples with silence : Yes
Delete leading and trailing silent blocks   : No
Null samples used in CRC calculations       : Yes
Used interface                              : Native Win32 interface for Win NT & 2000
Used output format              : Пользовательский кодировщик
Selected bitrate                : 1024 kBit/s
Quality                         : High
Add ID3 tag                     : No
Command line compressor         : C:\Program Files\FLAC\flac.exe
Additional command line options : -8 -V %s
TOC of the extracted CD
     Track |   Start  |  Length  | Start sector | End sector
    ---------------------------------------------------------
        1  |  0:00.00 |  2:58.20 |         0    |    13369
        2  |  2:58.20 |  5:31.18 |     13370    |    38212
        3  |  8:29.38 |  3:16.17 |     38213    |    52929
        4  | 11:45.55 |  0:09.00 |     52930    |    53604
Range status and errors
Selected range
     Filename C:\Users\Администратор\Desktop\Audio\The Winning Team - Ole Ole Ole Ole.wav
     Peak level 89.1 %
     Extraction speed 0.0 X
     Range quality 100.0 %
     Test CRC 7C7A67C4
     Copy CRC 7C7A67C4
     Copy OK
No errors occurred
AccurateRip summary
Track  1  not present in database
Track  2  not present in database
Track  3  not present in database
Track  4  not present in database
None of the tracks are present in the AccurateRip database
End of status report
Код:
REM GENRE Eurodance
REM DATE 1993
REM DISCID 2002CA04
REM COMMENT "ExactAudioCopy v1.0b1"
PERFORMER "The Winning Team"
TITLE "Ole Ole Ole Ole"
FILE "The Winning Team - Ole Ole Ole Ole.flac" WAVE
  TRACK 01 AUDIO
    TITLE "Ole Ole Ole Ole (Radio Edit)"
    PERFORMER "The Winning Team"
    INDEX 01 00:00:00
  TRACK 02 AUDIO
    TITLE "Ole Ole Ole Ole (Elastic Mix)"
    PERFORMER "The Winning Team"
    INDEX 00 02:56:38
    INDEX 01 02:58:20
  TRACK 03 AUDIO
    TITLE "All Night"
    PERFORMER "The Winning Team"
    INDEX 00 08:27:50
    INDEX 01 08:29:38
  TRACK 04 AUDIO
    TITLE "Bonus Track"
    PERFORMER "The Winning Team"
    INDEX 00 11:43:68
    INDEX 01 11:45:55
Правила, инструкции, FAQ!!!
Торрент  Добавлен [23 май 2019, 20:08] Скачать торрент Магнет ссылка
Скачать торрент
[ Размер 17.58 КБ / Просмотров 1 ]

Статус
Проверен 
 
Размер  107.67 МБ
Приватный: Нет (DHT включён)
.torrent скачан  0
Как залить торрент? | Как скачать Torrent? | Ошибка в торренте? Качайте магнет  


     Отправить личное сообщение
   
Страница 1 из 1
Показать сообщения за:  Поле сортировки  
Начать новую тему Ответить на тему


Сейчас этот форум просматривают: нет зарегистрированных пользователей и гости: 0


Вы не можете начинать темы
Вы не можете отвечать на сообщения
Вы не можете редактировать свои сообщения
Вы не можете удалять свои сообщения
Вы не можете добавлять вложения

Перейти:  
Ресурс не предоставляет электронные версии произведений, а занимается лишь коллекционированием и каталогизацией ссылок, присылаемых и публикуемых на форуме нашими читателями. Если вы являетесь правообладателем какого-либо представленного материала и не желаете чтобы ссылка на него находилась в нашем каталоге, свяжитесь с нами и мы незамедлительно удалим её. Файлы для обмена на трекере предоставлены пользователями сайта, и администрация не несёт ответственности за их содержание. Просьба не заливать файлы, защищенные авторскими правами, а также файлы нелегального содержания!
cron