Начать новую тему Ответить на тему
Статистика раздачи
Размер: 182.82 МБ | Добавлен: 23 май 2019, 20:07 | Скачали: 0
Сидеров: 0  [0 байт/сек]    Личеров: 0  [0 байт/сек]
Пред. тема | След. тема 

Автор
Сообщение

СообщениеДобавлено: 23 май 2019, 20:07 

Ответить с цитатой 

Tempomat - Blu Balloni
Жанр: Euro-House
Страна-производитель диска: Holland
Год издания: 1997
Издатель (лейбл): Cologne Dance Label
Номер по каталогу: 7243 8 84575 2 1
Аудиокодек: FLAC (*.flac)
Тип рипа: tracks+.cue
Битрейт аудио: lossless
Продолжительность: 00:19:14
Источник (релизер): собственный рип
Наличие сканов в содержимом раздачи: да
Треклист:
01. Blu Balloni (Sash Radio Edit) (3:40)
02. Blu Balloni (7 Inch) (3:35)
03. Blu Balloni (Sash Long Version) (5:54)
04. Blu Balloni (12 Inch) (6:06)



Код:
Exact Audio Copy V0.99 prebeta 5 from 4. May 2009
EAC extraction logfile from 15. May 2012, 15:00
Tempomat / Blu Balloni
Used drive  : ASUS    DRW-1814BLT   Adapter: 1  ID: 0
Read mode               : Secure
Utilize accurate stream : Yes
Defeat audio cache      : Yes
Make use of C2 pointers : No
Read offset correction                      : 6
Overread into Lead-In and Lead-Out          : No
Fill up missing offset samples with silence : Yes
Delete leading and trailing silent blocks   : No
Null samples used in CRC calculations       : Yes
Used interface                              : Native Win32 interface for Win NT & 2000
Gap handling                                : Appended to previous track
Used output format              : User Defined Encoder
Selected bitrate                : 1024 kBit/s
Quality                         : High
Add ID3 tag                     : No
Command line compressor         : C:\Program Files\EAC\Flac\flac.exe
Additional command line options : -8 -V -T "ARTIST=%a" -T "TITLE=%t" -T "ALBUM=%g" -T "DATE=%y" -T "TRACKNUMBER=%n" -T "GENRE=%m" -T "COMMENT=EAC FLAC -8" %s
TOC of the extracted CD
     Track |   Start  |  Length  | Start sector | End sector
    ---------------------------------------------------------
        1  |  0:00.00 |  3:39.52 |         0    |    16476
        2  |  3:39.52 |  3:34.65 |     16477    |    32591
        3  |  7:14.42 |  5:53.50 |     32592    |    59116
        4  | 13:08.17 |  6:05.63 |     59117    |    86554
Track  1
     Filename C:\01. Tempomat - Blu Balloni (Sash Radio Edit).wav
     Pre-gap length  0:00:02.00
     Peak level 99.9 %
     Track quality 100.0 %
     Test CRC 6EA5F932
     Copy CRC 6EA5F932
     Track not present in AccurateRip database
     Copy OK
Track  2
     Filename C:\02. Tempomat - Blu Balloni (7 Inch).wav
     Pre-gap length  0:00:02.62
     Peak level 99.9 %
     Track quality 99.9 %
     Test CRC C2C8D060
     Copy CRC C2C8D060
     Track not present in AccurateRip database
     Copy OK
Track  3
     Filename C:\03. Tempomat - Blu Balloni (Sash Long Version).wav
     Pre-gap length  0:00:01.96
     Peak level 99.9 %
     Track quality 99.9 %
     Test CRC B9192E23
     Copy CRC B9192E23
     Track not present in AccurateRip database
     Copy OK
Track  4
     Filename C:\04. Tempomat - Blu Balloni (12 Inch).wav
     Pre-gap length  0:00:03.02
     Peak level 99.9 %
     Track quality 100.0 %
     Test CRC 0C4443FE
     Copy CRC 0C4443FE
     Track not present in AccurateRip database
     Copy OK
None of the tracks are present in the AccurateRip database
No errors occurred
End of status report
Код:
REM GENRE Trance
REM DATE 1997
REM DISCID 24048204
REM COMMENT "ExactAudioCopy v0.99pb5"
PERFORMER "Tempomat"
TITLE "Blu Balloni"
FILE "01. Tempomat - Blu Balloni (Sash Radio Edit).wav" WAVE
  TRACK 01 AUDIO
    TITLE "Blu Balloni (Sash Radio Edit)"
    PERFORMER "Tempomat"
    INDEX 01 00:00:00
  TRACK 02 AUDIO
    TITLE "Blu Balloni (7 Inch)"
    PERFORMER "Tempomat"
    INDEX 00 03:37:05
FILE "02. Tempomat - Blu Balloni (7 Inch).wav" WAVE
    INDEX 01 00:00:00
  TRACK 03 AUDIO
    TITLE "Blu Balloni (Sash Long Version)"
    PERFORMER "Tempomat"
    INDEX 00 03:32:68
FILE "03. Tempomat - Blu Balloni (Sash Long Version).wav" WAVE
    INDEX 01 00:00:00
  TRACK 04 AUDIO
    TITLE "Blu Balloni (12 Inch)"
    PERFORMER "Tempomat"
    INDEX 00 05:50:48
FILE "04. Tempomat - Blu Balloni (12 Inch).wav" WAVE
    INDEX 01 00:00:00


Правила, инструкции, FAQ!!!
Торрент  Добавлен [23 май 2019, 20:07] Скачать торрент Магнет ссылка
Скачать торрент
[ Размер 15.44 КБ / Просмотров 3 ]

Статус
Проверен 
 
Размер  182.82 МБ
Приватный: Нет (DHT включён)
.torrent скачан  0
Как залить торрент? | Как скачать Torrent? | Ошибка в торренте? Качайте магнет  


     Отправить личное сообщение
   
Страница 1 из 1
Показать сообщения за:  Поле сортировки  
Начать новую тему Ответить на тему


Сейчас этот форум просматривают: нет зарегистрированных пользователей и гости: 0


Вы не можете начинать темы
Вы не можете отвечать на сообщения
Вы не можете редактировать свои сообщения
Вы не можете удалять свои сообщения
Вы не можете добавлять вложения

Перейти:  
Ресурс не предоставляет электронные версии произведений, а занимается лишь коллекционированием и каталогизацией ссылок, присылаемых и публикуемых на форуме нашими читателями. Если вы являетесь правообладателем какого-либо представленного материала и не желаете чтобы ссылка на него находилась в нашем каталоге, свяжитесь с нами и мы незамедлительно удалим её. Файлы для обмена на трекере предоставлены пользователями сайта, и администрация не несёт ответственности за их содержание. Просьба не заливать файлы, защищенные авторскими правами, а также файлы нелегального содержания!
cron