Начать новую тему Ответить на тему
Статистика раздачи
Размер: 99.82 МБ | Добавлен: 25 сен 2019, 21:05 | Скачали: 0
Сидеров: 3  [0 байт/сек]    Личеров: 1  [0 байт/сек]
Пред. тема | След. тема 

Автор
Сообщение

СообщениеДобавлено: 25 сен 2019, 21:05 

Ответить с цитатой 

Tears Of Joy - Walking In The Rain (CDM)(1993)
Жанр: Euro House
Носитель: CDM
Страна-производитель диска (релиза): Germany
Год издания: 1993
Издатель (лейбл): WEA
Номер по каталогу: 4509-94134-2
Страна исполнителя (группы): Germany
Аудиокодек: FLAC (*.flac)
Тип рипа: image+.cue
Продолжительность: 00:14:58
Источник: собственный рип
Наличие сканов в содержимом раздачи: да
Треклист:
1 Walking In The Rain (Radio Edit) 3:51
2 Walking In The Rain (Extended Version) 5:12
3 Walking In The Rain (T.O.J. Club House Mix) 5:53
Код:
xact Audio Copy V1.1 from 23. June 2015
Отчёт EAC об извлечении, выполненном 11. сентября 2019, 21:52
Tears Of Joy / Walking In The Rain (CDM)
Дисковод: TSSTcorpCDDVDW SH-S223C   Adapter: 1  ID: 0
Режим чтения                 : Достоверность
Использование точного потока : Да
Отключение кэша аудио        : Да
Использование указателей C2  : Нет
Коррекция смещения при чтении                     : 697
Способность читать области Lead-in и Lead-out     : Нет
Заполнение пропущенных сэмплов тишиной            : Да
Удаление блоков с тишиной в начале и конце        : Нет
При вычислениях CRC использовались нулевые сэмплы : Да
Интерфейс                                         : Встроенный Win32-интерфейс для Win NT/2000
Выходной формат          : Пользовательский кодировщик
Выбранный битрейт        : 128 kBit/s
Качество                 : Высокий
Добавление ID3-тега      : Нет
Утилита сжатия           : C:\Program Files\FLAC\FLAC frontend.exe
Дополнительные параметры : -V -8 %source%
TOC извлечённого CD
     Трек |   Старт  | Длительность | Начальный сектор | Конечный сектор
    ---------------------------------------------------------------------
       1  |  0:00.00 |    3:54.52   |           0      |      17601
       2  |  3:54.52 |    5:11.48   |       17602      |      40974
       3  |  9:06.25 |    5:52.40   |       40975      |      67414
Характеристики диапазона извлечения и сообщения об ошибках
Выбранный диапазон
     Имя файла E:\Torrent\Мои Раздачи\Tears Of Joy - Walking In The Rain (CDM)\Tears Of Joy - Walking In The Rain (CDM).wav
     Пиковый уровень 97.7 %
     Скорость извлечения 2.3 X
     Качество диапазона 100.0 %
     CRC теста BFB94CA9
     CRC копии BFB94CA9
     Копирование... OK
Ошибок не произошло
AccurateRip: сводка
Трек  1  отсутствует в базе данных
Трек  2  отсутствует в базе данных
Трек  3  отсутствует в базе данных
Ни одного трека нет в базе AccurateRip
Конец отчёта
---- CUETools DB Plugin V2.1.6
[CTDB TOCID: X7ixz8a9Q8Db2FfYOV7P4JLGCt4-] found
Submit result: already submitted
Track | CTDB Status
  1   | (1/1) Accurately ripped
  2   | (1/1) Accurately ripped
  3   | (1/1) Accurately ripped
==== Контрольная сумма отчёта BE17548F60486F033A088994F084EAB05486FDB3B1AD3BFDCD684B5CB1FA48AA ====
Правила, инструкции, FAQ!!!
Торрент  Добавлен [25 сен 2019, 21:05] Скачать торрент Магнет ссылка
Скачать торрент
[ Размер 16.45 КБ / Просмотров 4 ]

Статус
Проверен 
 
Размер  99.82 МБ
Приватный: Нет (DHT включён)
.torrent скачан  0
Как залить торрент? | Как скачать Torrent? | Ошибка в торренте? Качайте магнет  


     Отправить личное сообщение
   
Страница 1 из 1
Показать сообщения за:  Поле сортировки  
Начать новую тему Ответить на тему


Сейчас этот форум просматривают: нет зарегистрированных пользователей и гости: 0


Вы не можете начинать темы
Вы не можете отвечать на сообщения
Вы не можете редактировать свои сообщения
Вы не можете удалять свои сообщения
Вы не можете добавлять вложения

Перейти:  
Ресурс не предоставляет электронные версии произведений, а занимается лишь коллекционированием и каталогизацией ссылок, присылаемых и публикуемых на форуме нашими читателями. Если вы являетесь правообладателем какого-либо представленного материала и не желаете чтобы ссылка на него находилась в нашем каталоге, свяжитесь с нами и мы незамедлительно удалим её. Файлы для обмена на трекере предоставлены пользователями сайта, и администрация не несёт ответственности за их содержание. Просьба не заливать файлы, защищенные авторскими правами, а также файлы нелегального содержания!
cron