Начать новую тему Ответить на тему
Статистика раздачи
Размер: 359.57 МБ | Добавлен: 23 май 2019, 20:07 | Скачали: 0
Сидеров: 0  [0 байт/сек]    Личеров: 0  [0 байт/сек]
Пред. тема | След. тема 

Автор
Сообщение

СообщениеДобавлено: 23 май 2019, 20:07 

Ответить с цитатой 

Chaya / Here's To Miracles
Жанр: Euro House, Synth-pop
Носитель: CD
Страна-производитель диска: Germany
Год издания: 1993
Издатель (лейбл): Columbia ‎
Номер по каталогу: 474272 2
Страна: Germany
Аудиокодек: FLAC (*.flac)
Тип рипа: image+.cue
Битрейт аудио: lossless
Продолжительность: 00:49:23
Источник (релизер): рип LDE1983
Наличие сканов в содержимом раздачи: нет
Треклист:
01 Chaya (Overture)
02 Don't Turn Away
03 Here's To Miracles
04 I Feel My Heart Is Burning
05 Hot Shot Lover
06 Test Of Time
07 I See Your Candles Burning Bright
08 You Drive Me Insane
09 Runaway Train
10 Deep Inside I'm With You
11 Take A Little Time
12 We Better Stop Telling Lies
13 Life's A Carousel
14 Here's To Miracles (Ballad Version)
Код:
Exact Audio Copy V1.0 beta 3 from 29. August 2011
Отчёт EAC об извлечении, выполненном 7. марта 2014, 9:07
Chaya / Here's to miracles
Дисковод: Optiarc DVD RW AD-7240S   Adapter: 1  ID: 0
Режим чтения                 : Достоверность
Использование точного потока : Да
Отключение кэша аудио        : Да
Использование указателей C2  : Нет
Коррекция смещения при чтении                     : 48
Способность читать области Lead-in и Lead-out     : Нет
Заполнение пропущенных сэмплов тишиной            : Да
Удаление блоков с тишиной в начале и конце        : Нет
При вычислениях CRC использовались нулевые сэмплы : Да
Интерфейс                                         : Встроенный Win32-интерфейс для Win NT/2000
Выходной формат          : Пользовательский кодировщик
Выбранный битрейт        : 1024 kBit/s
Качество                 : Высокий
Добавление ID3-тега      : Нет
Утилита сжатия           : C:\Program Files\Exact Audio Copy\Flac\flac.exe
Дополнительные параметры : -V -8 %source%
TOC извлечённого CD
     Трек |   Старт  | Длительность | Начальный сектор | Конечный сектор
    ---------------------------------------------------------------------
       1  |  0:00.00 |    1:05.57   |           0      |       4931
       2  |  1:05.57 |    4:05.40   |        4932      |      23346
       3  |  5:11.22 |    4:19.60   |       23347      |      42831
       4  |  9:31.07 |    4:49.68   |       42832      |      64574
       5  | 14:21.00 |    3:47.22   |       64575      |      81621
       6  | 18:08.22 |    3:52.48   |       81622      |      99069
       7  | 22:00.70 |    4:16.57   |       99070      |     118326
       8  | 26:17.52 |    3:20.05   |      118327      |     133331
       9  | 29:37.57 |    3:45.53   |      133332      |     150259
      10  | 33:23.35 |    3:28.02   |      150260      |     165861
      11  | 36:51.37 |    3:39.40   |      165862      |     182326
      12  | 40:31.02 |    3:45.55   |      182327      |     199256
      13  | 44:16.57 |    3:33.55   |      199257      |     215286
      14  | 47:50.37 |    4:18.03   |      215287      |     234639
Характеристики диапазона извлечения и сообщения об ошибках
Выбранный диапазон
     Имя файла C:\Users\mityy\Desktop\Rip LDE1983, club5328816 vk.com\Release\Chaya - Here's to miracles.wav
     Пиковый уровень 100.0 %
     Скорость извлечения 3.9 X
     Качество диапазона 100.0 %
     CRC теста 18AE82C3
     CRC копии 18AE82C3
     Копирование... OK
Ошибок не произошло
AccurateRip: сводка
Трек  1  : извлечено точно (доверие 2)  [003F799A]  (AR v1)
Трек  2  : извлечено точно (доверие 2)  [373DBFBA]  (AR v1)
Трек  3  : извлечено точно (доверие 2)  [4A98AB42]  (AR v1)
Трек  4  : извлечено точно (доверие 2)  [30852671]  (AR v1)
Трек  5  : извлечено точно (доверие 2)  [CF28298B]  (AR v1)
Трек  6  : извлечено точно (доверие 2)  [D02D8258]  (AR v1)
Трек  7  : извлечено точно (доверие 2)  [8CB1350C]  (AR v1)
Трек  8  : извлечено точно (доверие 2)  [572C889D]  (AR v1)
Трек  9  : извлечено точно (доверие 2)  [C861391C]  (AR v1)
Трек 10  : извлечено точно (доверие 2)  [ABEC68FD]  (AR v1)
Трек 11  : извлечено точно (доверие 2)  [FC893778]  (AR v1)
Трек 12  : извлечено точно (доверие 2)  [853E5328]  (AR v1)
Трек 13  : извлечено точно (доверие 2)  [AF62FE49]  (AR v1)
Трек 14  : извлечено точно (доверие 2)  [14229DA7]  (AR v1)
Все треки извлечены точно
Конец отчёта
==== Контрольная сумма отчёта B674BA34C4AF148FF3D61939693FB20D93FCC7BC6D83BDA057E785B8B26E9B29 ====
Код:
REM GENRE Ballad
REM DATE 1993
REM DISCID B90C380E
REM COMMENT "ExactAudioCopy v1.0b3"
PERFORMER "Chaya"
TITLE "Here's to miracles"
FILE "Chaya - Here's to miracles.flac" WAVE
  TRACK 01 AUDIO
    TITLE "Chaya"
    PERFORMER "Chaya"
    INDEX 01 00:00:00
  TRACK 02 AUDIO
    TITLE "Don't turn away"
    PERFORMER "Chaya"
    INDEX 01 01:05:57
  TRACK 03 AUDIO
    TITLE "Here's to miracles"
    PERFORMER "Chaya"
    INDEX 01 05:11:22
  TRACK 04 AUDIO
    TITLE "I feel my heart ist burning"
    PERFORMER "Chaya"
    INDEX 01 09:31:07
  TRACK 05 AUDIO
    TITLE "Hot shot Lovers"
    PERFORMER "Chaya"
    INDEX 01 14:21:00
  TRACK 06 AUDIO
    TITLE "Test of time"
    PERFORMER "Chaya"
    INDEX 01 18:08:22
  TRACK 07 AUDIO
    TITLE "I see you candles burning bright"
    PERFORMER "Chaya"
    INDEX 01 22:00:70
  TRACK 08 AUDIO
    TITLE "You drive me insane"
    PERFORMER "Chaya"
    INDEX 01 26:17:52
  TRACK 09 AUDIO
    TITLE "Runaway train"
    PERFORMER "Chaya"
    INDEX 01 29:37:57
  TRACK 10 AUDIO
    TITLE "Deep inside I'm with you"
    PERFORMER "Chaya"
    INDEX 01 33:23:35
  TRACK 11 AUDIO
    TITLE "Take a little time"
    PERFORMER "Chaya"
    INDEX 01 36:51:37
  TRACK 12 AUDIO
    TITLE "We better stop telling lies"
    PERFORMER "Chaya"
    INDEX 01 40:31:02
  TRACK 13 AUDIO
    TITLE "Life's a carousel"
    PERFORMER "Chaya"
    INDEX 01 44:16:57
  TRACK 14 AUDIO
    TITLE "Here's to miracles (Ballad version)"
    PERFORMER "Chaya"
    INDEX 01 47:50:37
Доп. информация: http://www.discogs.com/Chaya-Heres-To-Miracles/release/2756651
Правила, инструкции, FAQ!!!
Торрент  Добавлен [23 май 2019, 20:07] Скачать торрент Магнет ссылка
Скачать торрент
[ Размер 14.72 КБ / Просмотров 3 ]

Статус
Проверен 
 
Размер  359.57 МБ
Приватный: Нет (DHT включён)
.torrent скачан  0
Как залить торрент? | Как скачать Torrent? | Ошибка в торренте? Качайте магнет  


     Отправить личное сообщение
   
Страница 1 из 1
Показать сообщения за:  Поле сортировки  
Начать новую тему Ответить на тему


Сейчас этот форум просматривают: нет зарегистрированных пользователей и гости: 0


Вы не можете начинать темы
Вы не можете отвечать на сообщения
Вы не можете редактировать свои сообщения
Вы не можете удалять свои сообщения
Вы не можете добавлять вложения

Перейти:  
Ресурс не предоставляет электронные версии произведений, а занимается лишь коллекционированием и каталогизацией ссылок, присылаемых и публикуемых на форуме нашими читателями. Если вы являетесь правообладателем какого-либо представленного материала и не желаете чтобы ссылка на него находилась в нашем каталоге, свяжитесь с нами и мы незамедлительно удалим её. Файлы для обмена на трекере предоставлены пользователями сайта, и администрация не несёт ответственности за их содержание. Просьба не заливать файлы, защищенные авторскими правами, а также файлы нелегального содержания!
cron