Начать новую тему Ответить на тему
Статистика раздачи
Размер: 197.19 МБ | Добавлен: 23 май 2019, 20:07 | Скачали: 0
Сидеров: 0  [0 байт/сек]    Личеров: 0  [0 байт/сек]
Пред. тема | След. тема 

Автор
Сообщение

СообщениеДобавлено: 23 май 2019, 20:07 

Ответить с цитатой 

Provocation – Feel It D.J. (Maxi CD)
Жанр: Euro House
Страна-производитель диска: Switzerland
Год издания: 1995
Издатель (лейбл): Fresh Music
Номер по каталогу: FM 1272
Аудиокодек: FLAC (*.flac)
Тип рипа: image+.cue
Битрейт аудио: lossless
Продолжительность: 20:13
Источник (релизер): Собственный рип
Наличие сканов в содержимом раздачи: да
Треклист:
1 Feel It D.J. (Radio Version) 3:53
2 Feel It D.J. (Feel It D.J! Club-Mix) 5:19
3 Feel It D.J. (Pre-Out-Mix) 5:08
4 Feel It D.J. (Tekkno-Mix) (Live In Berlin) 5:50
Код:
Exact Audio Copy V1.0 beta 2 from 29. April 2011
Отчёт EAC об извлечении, выполненном 15. октября 2011, 15:07
Provocation  / Feel It D.J.
Дисковод: Optiarc DVD RW AD-7200S   Adapter: 2  ID: 0
Режим чтения                 : Достоверность
Использование точного потока : Да
Отключение кэша аудио        : Да
Использование указателей C2  : Нет
Коррекция смещения при чтении                     : 48
Способность читать области Lead-in и Lead-out     : Нет
Заполнение пропущенных сэмплов тишиной            : Да
Удаление блоков с тишиной в начале и конце        : Нет
При вычислениях CRC использовались нулевые сэмплы : Да
Интерфейс                                         : Встроенный Win32-интерфейс для Win NT/2000
Выходной формат : Внутренние WAV-операции
Формат сэмплов  : 44.100 Гц; 16 бит; стерео
TOC извлечённого CD
     Трек |   Старт  | Длительность | Начальный сектор | Конечный сектор
    ---------------------------------------------------------------------
       1  |  0:00.00 |    3:56.17   |           0      |      17716
       2  |  3:56.17 |    5:22.55   |       17717      |      41921
       3  |  9:18.72 |    5:11.25   |       41922      |      65271
       4  | 14:30.22 |    5:50.32   |       65272      |      91553
Характеристики диапазона извлечения и сообщения об ошибках
Выбранный диапазон
     Имя файла C:\Documents and Settings\vova\Рабочий стол\555\Provocation  - Feel It D.J..wav
     Пиковый уровень 99.0 %
     Скорость извлечения 0.7 X
     Качество диапазона 100.0 %
     CRC теста E34BA9F8
     CRC копии E34BA9F8
     Копирование... OK
Ошибок не произошло
AccurateRip: сводка
Трек  1  отсутствует в базе данных
Трек  2  отсутствует в базе данных
Трек  3  отсутствует в базе данных
Трек  4  отсутствует в базе данных
Ни одного трека нет в базе AccurateRip
Конец отчёта
Доп. информация: http://www.discogs.com/Provocation-Feel-It-DJ/release/1354900
Правила, инструкции, FAQ!!!
Торрент  Добавлен [23 май 2019, 20:07] Скачать торрент Магнет ссылка
Скачать торрент
[ Размер 1.29 КБ / Просмотров 3 ]

Статус
Проверен 
 
Размер  197.19 МБ
Приватный: Нет (DHT включён)
.torrent скачан  0
Как залить торрент? | Как скачать Torrent? | Ошибка в торренте? Качайте магнет  


     Отправить личное сообщение
   
Страница 1 из 1
Показать сообщения за:  Поле сортировки  
Начать новую тему Ответить на тему


Сейчас этот форум просматривают: нет зарегистрированных пользователей и гости: 0


Вы не можете начинать темы
Вы не можете отвечать на сообщения
Вы не можете редактировать свои сообщения
Вы не можете удалять свои сообщения
Вы не можете добавлять вложения

Перейти:  
Ресурс не предоставляет электронные версии произведений, а занимается лишь коллекционированием и каталогизацией ссылок, присылаемых и публикуемых на форуме нашими читателями. Если вы являетесь правообладателем какого-либо представленного материала и не желаете чтобы ссылка на него находилась в нашем каталоге, свяжитесь с нами и мы незамедлительно удалим её. Файлы для обмена на трекере предоставлены пользователями сайта, и администрация не несёт ответственности за их содержание. Просьба не заливать файлы, защищенные авторскими правами, а также файлы нелегального содержания!
cron