Начать новую тему Ответить на тему
Статистика раздачи
Размер: 127.84 МБ | Добавлен: 23 май 2019, 20:02 | Скачали: 0
Сидеров: 0  [0 байт/сек]    Личеров: 0  [0 байт/сек]
Пред. тема | След. тема 

Автор
Сообщение

СообщениеДобавлено: 23 май 2019, 20:02 

Ответить с цитатой 

People Of The World - In Heaven No Limit (CDM)
Жанр: Euro House
Страна-производитель диска: Germany
Год издания: 1994
Издатель (лейбл): Ultraphonic
Номер по каталогу: 4509-96850-2
Аудиокодек: FLAC (*.flac)
Тип рипа: image+.cue
Битрейт аудио: lossless
Продолжительность: 00:13:44
Источник (релизер): собственный рип
Наличие сканов в содержимом раздачи: да
Треклист:
1 In Heaven No Limit (Radio Edit) 3:29
2 In Heaven No Limit (Maxi Version) 4:52
3 In Heaven No Limit (House Trance Mix) 5:20
Код:
Exact Audio Copy V1.0 beta 3 from 29. August 2011
Отчёт EAC об извлечении, выполненном 10. марта 2013, 16:52
People Of The World / In Heaven No Limit
Дисковод: SlimtypeDVD A DS8A8SH   Adapter: 0  ID: 1
Режим чтения                 : Достоверность
Использование точного потока : Да
Отключение кэша аудио        : Да
Использование указателей C2  : Нет
Коррекция смещения при чтении                     : 6
Способность читать области Lead-in и Lead-out     : Нет
Заполнение пропущенных сэмплов тишиной            : Да
Удаление блоков с тишиной в начале и конце        : Нет
При вычислениях CRC использовались нулевые сэмплы : Да
Интерфейс                                         : Встроенный Win32-интерфейс для Win NT/2000
Выходной формат          : Пользовательский кодировщик
Выбранный битрейт        : 896 kBit/s
Качество                 : Высокий
Добавление ID3-тега      : Нет
Утилита сжатия           : C:\Program Files (x86)\Exact Audio Copy\Flac\flac.exe
Дополнительные параметры : -V -8 -T "Date=%year%" -T "Genre=%genre%" %source%
TOC извлечённого CD
     Трек |   Старт  | Длительность | Начальный сектор | Конечный сектор
    ---------------------------------------------------------------------
       1  |  0:00.00 |    3:31.05   |           0      |      15829
       2  |  3:31.05 |    4:54.02   |       15830      |      37881
       3  |  8:25.07 |    5:18.68   |       37882      |      61799
Характеристики диапазона извлечения и сообщения об ошибках
Выбранный диапазон
     Имя файла E:\Downloads\People Of The World ‎- In Heaven No Limit (CDM-1994-Flac)\People Of The World - In Heaven No Limit.wav
     Пиковый уровень 98.8 %
     Скорость извлечения 3.2 X
     Качество диапазона 99.9 %
     CRC теста 8F475DBF
     CRC копии 8F475DBF
     Копирование... OK
Ошибок не произошло
AccurateRip: сводка
Трек  1  отсутствует в базе данных
Трек  2  отсутствует в базе данных
Трек  3  отсутствует в базе данных
Ни одного трека нет в базе AccurateRip
Конец отчёта
==== Контрольная сумма отчёта FA934CD99710B021619021593E09F0331EC548E65E2FA14526048BB94B0FF1D7 ====

Доп. информация: Рип мой,с оригинального диска из моей коллекции.Сканы обложки и диска внутри торрeнта (600 dpi,PNG).Приятного прослушивания!
Правила, инструкции, FAQ!!!
Торрент  Добавлен [23 май 2019, 20:02] Скачать торрент Магнет ссылка
Скачать торрент
[ Размер 20.87 КБ / Просмотров 5 ]

Статус
Проверен 
 
Размер  127.84 МБ
Приватный: Нет (DHT включён)
.torrent скачан  0
Как залить торрент? | Как скачать Torrent? | Ошибка в торренте? Качайте магнет  


     Отправить личное сообщение
   
Страница 1 из 1
Показать сообщения за:  Поле сортировки  
Начать новую тему Ответить на тему


Сейчас этот форум просматривают: нет зарегистрированных пользователей и гости: 0


Вы не можете начинать темы
Вы не можете отвечать на сообщения
Вы не можете редактировать свои сообщения
Вы не можете удалять свои сообщения
Вы не можете добавлять вложения

Перейти:  
Ресурс не предоставляет электронные версии произведений, а занимается лишь коллекционированием и каталогизацией ссылок, присылаемых и публикуемых на форуме нашими читателями. Если вы являетесь правообладателем какого-либо представленного материала и не желаете чтобы ссылка на него находилась в нашем каталоге, свяжитесь с нами и мы незамедлительно удалим её. Файлы для обмена на трекере предоставлены пользователями сайта, и администрация не несёт ответственности за их содержание. Просьба не заливать файлы, защищенные авторскими правами, а также файлы нелегального содержания!
cron