Начать новую тему Ответить на тему
Статистика раздачи
Размер: 117.57 МБ | Добавлен: 23 май 2019, 20:05 | Скачали: 0
Сидеров: 0  [0 байт/сек]    Личеров: 0  [0 байт/сек]
Пред. тема | След. тема 

Автор
Сообщение

СообщениеДобавлено: 23 май 2019, 20:05 

Ответить с цитатой 

Ondina - Into The Night (Remixes)
Жанр: Euro House
Страна-производитель диска: Mexico
Год издания диска: 1997
Издатель (лейбл): FonoVisa
Номер по каталогу: TMM 1980
Страна: Sweden
Аудио кодек: FLAC (*.flac)
Тип рипа: tracks+.cue
Битрейт аудио: lossless
Наличие сканов в содержимом раздачи: да
Discogs
Треклист:
1. Into The Night (Radio Mix - Album Version) — 3:26
2. Into The Night (Extended Mix) — 4:54
3. Into The Night (Kosmic & Sezam Mix) — 5:06
4. Into The Night (Accapella Mix) — 3:26
Код:
REM DISCID 27040A04
REM COMMENT "ExactAudioCopy v0.99pb4"
PERFORMER "Unknown Artist"
TITLE "Unknown Title"
FILE "01. Unknown Artist - Track01.wav" WAVE
  TRACK 01 AUDIO
    TITLE "Track01"
    PERFORMER "Unknown Artist"
    INDEX 01 00:00:00
  TRACK 02 AUDIO
    TITLE "Track02"
    PERFORMER "Unknown Artist"
    INDEX 00 03:29:37
FILE "02. Unknown Artist - Track02.wav" WAVE
    INDEX 01 00:00:00
  TRACK 03 AUDIO
    TITLE "Track03"
    PERFORMER "Unknown Artist"
    INDEX 00 04:56:50
FILE "03. Unknown Artist - Track03.wav" WAVE
    INDEX 01 00:00:00
  TRACK 04 AUDIO
    TITLE "Track04"
    PERFORMER "Unknown Artist"
    INDEX 00 05:09:28
FILE "04. Unknown Artist - Track04.wav" WAVE
    INDEX 01 00:00:00
Код:
Exact Audio Copy V0.99 prebeta 4 from 23. January 2008
EAC extraction logfile from 26. January 2009, 15:43
Unknown Artist / Unknown Title
Used drive  : HL-DT-STDVDRAM GSA-4163B   Adapter: 1  ID: 1
Read mode               : Secure
Utilize accurate stream : Yes
Defeat audio cache      : Yes
Make use of C2 pointers : No
Read offset correction                      : 667
Overread into Lead-In and Lead-Out          : No
Fill up missing offset samples with silence : Yes
Delete leading and trailing silent blocks   : No
Null samples used in CRC calculations       : No
Used interface                              : Native Win32 interface for Win NT & 2000
Gap handling                                : Not detected, thus appended to previous track
Used output format              : User Defined Encoder
Selected bitrate                : 1024 kBit/s
Quality                         : High
Add ID3 tag                     : No
Command line compressor         : C:\Program Files\Exact Audio Copy\FLAC\FLAC.EXE
Additional command line options : -6 -V -T "ARTIST=%a" -T "TITLE=%t" -T "ALBUM=%g" -T "DATE=%y" -T "TRACKNUMBER=%n" -T "GENRE=%m" -T "COMMENT=%e" %s -o %d
TOC of the extracted CD
     Track |   Start  |  Length  | Start sector | End sector
    ---------------------------------------------------------
        1  |  0:00.00 |  3:33.02 |         0    |    15976
        2  |  3:33.02 |  5:00.50 |     15977    |    38526
        3  |  8:33.52 |  5:13.20 |     38527    |    62021
        4  | 13:46.72 |  3:27.70 |     62022    |    77616
Track  1
     Filename J:\#APE\#MY REL\01. Unknown Artist - Track01.wav
     Peak level 66.0 %
     Track quality 100.0 %
     Copy CRC 13D2420E
     Track not present in AccurateRip database
     Copy OK
Track  2
     Filename J:\#APE\#MY REL\02. Unknown Artist - Track02.wav
     Peak level 66.8 %
     Track quality 100.0 %
     Copy CRC C0A41203
     Track not present in AccurateRip database
     Copy OK
Track  3
     Filename J:\#APE\#MY REL\03. Unknown Artist - Track03.wav
     Peak level 70.6 %
     Track quality 100.0 %
     Copy CRC 7E1F18CD
     Track not present in AccurateRip database
     Copy OK
Track  4
     Filename J:\#APE\#MY REL\04. Unknown Artist - Track04.wav
     Peak level 42.2 %
     Track quality 100.0 %
     Copy CRC 6EC703C1
     Track not present in AccurateRip database
     Copy OK
None of the tracks are present in the AccurateRip database
No errors occurred
End of status report
Real Name: Petra Lundqvist
Правила, инструкции, FAQ!!!
Торрент  Добавлен [23 май 2019, 20:05] Скачать торрент Магнет ссылка
Скачать торрент
[ Размер 19.28 КБ / Просмотров 4 ]

Статус
Проверен 
 
Размер  117.57 МБ
Приватный: Нет (DHT включён)
.torrent скачан  0
Как залить торрент? | Как скачать Torrent? | Ошибка в торренте? Качайте магнет  


     Отправить личное сообщение
   
Страница 1 из 1
Показать сообщения за:  Поле сортировки  
Начать новую тему Ответить на тему


Сейчас этот форум просматривают: нет зарегистрированных пользователей и гости: 0


Вы не можете начинать темы
Вы не можете отвечать на сообщения
Вы не можете редактировать свои сообщения
Вы не можете удалять свои сообщения
Вы не можете добавлять вложения

Перейти:  
Ресурс не предоставляет электронные версии произведений, а занимается лишь коллекционированием и каталогизацией ссылок, присылаемых и публикуемых на форуме нашими читателями. Если вы являетесь правообладателем какого-либо представленного материала и не желаете чтобы ссылка на него находилась в нашем каталоге, свяжитесь с нами и мы незамедлительно удалим её. Файлы для обмена на трекере предоставлены пользователями сайта, и администрация не несёт ответственности за их содержание. Просьба не заливать файлы, защищенные авторскими правами, а также файлы нелегального содержания!
cron
cron