Начать новую тему Ответить на тему
Статистика раздачи
Размер: 460.24 МБ | Добавлен: 23 май 2019, 20:05 | Скачали: 0
Сидеров: 0  [0 байт/сек]    Личеров: 0  [0 байт/сек]
Пред. тема | След. тема 

Автор
Сообщение

СообщениеДобавлено: 23 май 2019, 20:05 

Ответить с цитатой 

I&I ‎– Miłość Nie Kończy Się (CD, Album)
Жанр: Euro House
Страна-производитель диска: Poland
Год издания: 1996
Издатель (лейбл): Snake's Music
Номер по каталогу: SM 0406 CD
Аудиокодек: FLAC (*.flac)
Тип рипа: image+.cue
Битрейт аудио: lossless
Продолжительность: 57:23
Источник (релизер): Собственный рип
Наличие сканов в содержимом раздачи: да
Треклист:
1 Intro 1:50
2 Miłośc Nie Kończy Się 4:52
3 Ten Jeden Raz 3:55
4 Every Day 3:58
5 Aż Do Gwiazd 4:48
6 Tracę Głowę 3:58
7 Mam Ochotę Na Miłość 4:13
8 Go Crazy 4:03
9 Kochałeś ? 3:44
10 Nasz Mały Raj "Zawsze Ty I Ja" 4:50
11 Spróbuj Zmienić To 4:07
12 Szczęście Nie Omija Nas 3:56
13 Love Is Never-Ending Story 4:52
14 Remix 4:03
Код:
Exact Audio Copy V1.0 beta 2 from 29. April 2011
Отчёт EAC об извлечении, выполненном 12. января 2013, 13:00
I&I / Milosc Nie Konczy Sie
Дисковод: Optiarc DVD RW AD-7200S   Adapter: 2  ID: 0
Режим чтения                 : Достоверность
Использование точного потока : Да
Отключение кэша аудио        : Да
Использование указателей C2  : Нет
Коррекция смещения при чтении                     : 48
Способность читать области Lead-in и Lead-out     : Нет
Заполнение пропущенных сэмплов тишиной            : Да
Удаление блоков с тишиной в начале и конце        : Нет
При вычислениях CRC использовались нулевые сэмплы : Да
Интерфейс                                         : Встроенный Win32-интерфейс для Win NT/2000
Выходной формат          : Пользовательский кодировщик
Выбранный битрейт        : 1024 kBit/s
Качество                 : Высокий
Добавление ID3-тега      : Да
Утилита сжатия           : C:\Program Files\Exact Audio Copy\FLAC\FLAC.EXE
Дополнительные параметры : -6 -V -T "ARTIST=%artist%" -T "TITLE=%title%" -T "ALBUM=%albumtitle%" -T "DATE=%year%" -T "TRACKNUMBER=%tracknr%" -T "GENRE=%genre%" -T "COMMENT=%comment%" -T "BAND=%albuminterpret%" -T "COMPOSER=%composer%" %haslyrics%--tag-from-
TOC извлечённого CD
     Трек |   Старт  | Длительность | Начальный сектор | Конечный сектор
    ---------------------------------------------------------------------
       1  |  0:00.00 |    1:52.52   |           0      |       8451
       2  |  1:52.52 |    4:54.65   |        8452      |      30566
       3  |  6:47.42 |    3:58.43   |       30567      |      48459
       4  | 10:46.10 |    3:59.38   |       48460      |      66422
       5  | 14:45.48 |    4:52.65   |       66423      |      88387
       6  | 19:38.38 |    3:58.59   |       88388      |     106296
       7  | 23:37.22 |    4:13.18   |      106297      |     125289
       8  | 27:50.40 |    4:02.65   |      125290      |     143504
       9  | 31:53.30 |    3:46.18   |      143505      |     160472
      10  | 35:39.48 |    4:52.17   |      160473      |     182389
      11  | 40:31.65 |    4:10.28   |      182390      |     201167
      12  | 44:42.18 |    3:56.65   |      201168      |     218932
      13  | 48:39.08 |    5:05.17   |      218933      |     241824
      14  | 53:44.25 |    4:07.50   |      241825      |     260399
Характеристики диапазона извлечения и сообщения об ошибках
Выбранный диапазон
     Имя файла C:\Documents and Settings\vova\Рабочий стол\I&I - Milosc Nie Konczy Sie.wav
     Пиковый уровень 100.0 %
     Скорость извлечения 4.1 X
     Качество диапазона 100.0 %
     CRC теста 399AB673
     CRC копии 399AB673
     Копирование... OK
Ошибок не произошло
AccurateRip: сводка
Трек  1  отсутствует в базе данных
Трек  2  отсутствует в базе данных
Трек  3  отсутствует в базе данных
Трек  4  отсутствует в базе данных
Трек  5  отсутствует в базе данных
Трек  6  отсутствует в базе данных
Трек  7  отсутствует в базе данных
Трек  8  отсутствует в базе данных
Трек  9  отсутствует в базе данных
Трек 10  отсутствует в базе данных
Трек 11  отсутствует в базе данных
Трек 12  отсутствует в базе данных
Трек 13  отсутствует в базе данных
Трек 14  отсутствует в базе данных
Ни одного трека нет в базе AccurateRip
Конец отчёта
Доп. информация: http://www.discogs.com/I-Mi%C5%82o%C5%9B%C4%87-Nie-Ko%C5%84czy-Si%C4%99/release/1373571
Правила, инструкции, FAQ!!!
Торрент  Добавлен [23 май 2019, 20:05] Скачать торрент Магнет ссылка
Скачать торрент
[ Размер 1.71 КБ / Просмотров 7 ]

Статус
Проверен 
 
Размер  460.24 МБ
Приватный: Нет (DHT включён)
.torrent скачан  0
Как залить торрент? | Как скачать Torrent? | Ошибка в торренте? Качайте магнет  


     Отправить личное сообщение
   
Страница 1 из 1
Показать сообщения за:  Поле сортировки  
Начать новую тему Ответить на тему


Сейчас этот форум просматривают: нет зарегистрированных пользователей и гости: 0


Вы не можете начинать темы
Вы не можете отвечать на сообщения
Вы не можете редактировать свои сообщения
Вы не можете удалять свои сообщения
Вы не можете добавлять вложения

Перейти:  
Ресурс не предоставляет электронные версии произведений, а занимается лишь коллекционированием и каталогизацией ссылок, присылаемых и публикуемых на форуме нашими читателями. Если вы являетесь правообладателем какого-либо представленного материала и не желаете чтобы ссылка на него находилась в нашем каталоге, свяжитесь с нами и мы незамедлительно удалим её. Файлы для обмена на трекере предоставлены пользователями сайта, и администрация не несёт ответственности за их содержание. Просьба не заливать файлы, защищенные авторскими правами, а также файлы нелегального содержания!
cron