Начать новую тему Ответить на тему
Статистика раздачи
Размер: 397.53 МБ | Добавлен: 23 май 2019, 20:06 | Скачали: 0
Сидеров: 0  [0 байт/сек]    Личеров: 0  [0 байт/сек]
Пред. тема | След. тема 

Автор
Сообщение

СообщениеДобавлено: 23 май 2019, 20:06 

Ответить с цитатой 

Mister-Y - Okay
Жанр: Euro-House
Носитель: CD
Страна-производитель диска: Czech Republic
Год издания: 1998
Издатель (лейбл): Musica
Номер по каталогу: 720 550-2
Страна: Czech Republic
Аудиокодек: FLAC (*.flac)
Тип рипа: image+.cue
Битрейт аудио: lossless
Продолжительность: 00:55:44
Источник (релизер): amrax
Наличие сканов в содержимом раздачи: да
Треклист:
1. Okay
2. Call Me Your Name
3. Make Me Free
4. Mister-Y
5. Fantasy
6. Wa Doo Mi Doo Wej
7. Fantastic Train
8. Open Your Eyes
9. I'm Feeling So Fine
10. Give Me Your Love
11. Oh My Love
12. I Wanna Be Alright
13. Wind Of Your Way
14. What Happened In My Mind (Baby Baby)
15. What Happened In My Mind (Baby Baby-Live)
Код:
Exact Audio Copy V1.0 beta 3 from 29. August 2011
Отчёт EAC об извлечении, выполненном 25. июля 2014, 23:21
Mister-Y  / Okay
Дисковод: Optiarc DVD RW AD-5280S   Adapter: 1  ID: 1
Режим чтения                 : Достоверность
Использование точного потока : Да
Отключение кэша аудио        : Да
Использование указателей C2  : Нет
Коррекция смещения при чтении                     : 48
Способность читать области Lead-in и Lead-out     : Нет
Заполнение пропущенных сэмплов тишиной            : Да
Удаление блоков с тишиной в начале и конце        : Нет
При вычислениях CRC использовались нулевые сэмплы : Да
Интерфейс                                         : Встроенный Win32-интерфейс для Win NT/2000
Выходной формат          : Пользовательский кодировщик
Выбранный битрейт        : 896 kBit/s
Качество                 : Высокий
Добавление ID3-тега      : Нет
Утилита сжатия           : C:\Program Files\Exact Audio Copy\Flac\flac.exe
Дополнительные параметры :  -V -8 -T "Date=%year%" -T "Genre=%genre%" %source%
TOC извлечённого CD
     Трек |   Старт  | Длительность | Начальный сектор | Конечный сектор
    ---------------------------------------------------------------------
       1  |  0:00.00 |    3:19.00   |           0      |      14924
       2  |  3:19.00 |    3:43.00   |       14925      |      31649
       3  |  7:02.00 |    3:34.00   |       31650      |      47699
       4  | 10:36.00 |    3:25.00   |       47700      |      63074
       5  | 14:01.00 |    3:11.00   |       63075      |      77399
       6  | 17:12.00 |    3:11.00   |       77400      |      91724
       7  | 20:23.00 |    3:30.00   |       91725      |     107474
       8  | 23:53.00 |    4:27.00   |      107475      |     127499
       9  | 28:20.00 |    3:30.00   |      127500      |     143249
      10  | 31:50.00 |    4:10.00   |      143250      |     161999
      11  | 36:00.00 |    3:18.00   |      162000      |     176849
      12  | 39:18.00 |    3:54.00   |      176850      |     194399
      13  | 43:12.00 |    3:32.00   |      194400      |     210299
      14  | 46:44.00 |    3:47.00   |      210300      |     227324
      15  | 50:31.00 |    5:13.00   |      227325      |     250799
Характеристики диапазона извлечения и сообщения об ошибках
Выбранный диапазон
     Имя файла Q:\РИП\Mister-Y - Okay\Mister-Y  - Okay.wav
     Пиковый уровень 98.9 %
     Скорость извлечения 4.0 X
     Качество диапазона 100.0 %
     CRC теста A836531F
     CRC копии A836531F
     Копирование... OK
Ошибок не произошло
Конец отчёта
==== Контрольная сумма отчёта 03CC5EDFA9129EBD0DD060E21D2BD760B2BD5E8E1D683EDF8902B9EA11142C16 ====
Код:
REM GENRE Euro-House
REM DATE 1998
REM DISCID A80D100F
REM COMMENT "ExactAudioCopy v1.0b3"
PERFORMER "Mister-Y "
TITLE "Okay"
FILE "Mister-Y  - Okay.flac" WAVE
  TRACK 01 AUDIO
    TITLE "Okay"
    PERFORMER "Mister-Y "
    INDEX 01 00:00:00
  TRACK 02 AUDIO
    TITLE "Call Me Your Name"
    PERFORMER "Mister-Y "
    INDEX 00 03:17:01
    INDEX 01 03:19:00
  TRACK 03 AUDIO
    TITLE "Make Me Free"
    PERFORMER "Mister-Y "
    INDEX 00 07:00:01
    INDEX 01 07:02:00
  TRACK 04 AUDIO
    TITLE "Mister-y"
    PERFORMER "Mister-Y "
    INDEX 00 10:34:01
    INDEX 01 10:36:00
  TRACK 05 AUDIO
    TITLE "Fantasy"
    PERFORMER "Mister-Y "
    INDEX 00 13:59:01
    INDEX 01 14:01:00
  TRACK 06 AUDIO
    TITLE "Wa Doo Mi Doo Wej"
    PERFORMER "Mister-Y "
    INDEX 00 17:10:01
    INDEX 01 17:12:00
  TRACK 07 AUDIO
    TITLE "Fantastic Train"
    PERFORMER "Mister-Y "
    INDEX 00 20:21:01
    INDEX 01 20:23:00
  TRACK 08 AUDIO
    TITLE "Open Your Eyes"
    PERFORMER "Mister-Y "
    INDEX 00 23:51:01
    INDEX 01 23:53:00
  TRACK 09 AUDIO
    TITLE " I'm Feeling So Fine"
    PERFORMER "Mister-Y "
    INDEX 00 28:18:01
    INDEX 01 28:20:00
  TRACK 10 AUDIO
    TITLE "Give Me Your Love"
    PERFORMER "Mister-Y "
    INDEX 00 31:48:01
    INDEX 01 31:50:00
  TRACK 11 AUDIO
    TITLE "Oh My Love"
    PERFORMER "Mister-Y "
    INDEX 00 35:58:01
    INDEX 01 36:00:00
  TRACK 12 AUDIO
    TITLE "I Wanna Be All Right"
    PERFORMER "Mister-Y "
    INDEX 00 39:16:01
    INDEX 01 39:18:00
  TRACK 13 AUDIO
    TITLE "Wind Of Your Way"
    PERFORMER "Mister-Y "
    INDEX 00 43:10:01
    INDEX 01 43:12:00
  TRACK 14 AUDIO
    TITLE "What Happened In My Mind (Baby, Baby)"
    PERFORMER "Mister-Y "
    INDEX 00 46:42:01
    INDEX 01 46:44:00
  TRACK 15 AUDIO
    TITLE "Bonus Track - Live: What Happened In My Mind (Baby, Baby)"
    PERFORMER "Mister-Y "
    INDEX 00 50:29:01
    INDEX 01 50:31:00
Правила, инструкции, FAQ!!!
Торрент  Добавлен [23 май 2019, 20:06] Скачать торрент Магнет ссылка
Скачать торрент
[ Размер 16.78 КБ / Просмотров 7 ]

Статус
Проверен 
 
Размер  397.53 МБ
Приватный: Нет (DHT включён)
.torrent скачан  0
Как залить торрент? | Как скачать Torrent? | Ошибка в торренте? Качайте магнет  


     Отправить личное сообщение
   
Страница 1 из 1
Показать сообщения за:  Поле сортировки  
Начать новую тему Ответить на тему


Сейчас этот форум просматривают: нет зарегистрированных пользователей и гости: 0


Вы не можете начинать темы
Вы не можете отвечать на сообщения
Вы не можете редактировать свои сообщения
Вы не можете удалять свои сообщения
Вы не можете добавлять вложения

Перейти:  
Ресурс не предоставляет электронные версии произведений, а занимается лишь коллекционированием и каталогизацией ссылок, присылаемых и публикуемых на форуме нашими читателями. Если вы являетесь правообладателем какого-либо представленного материала и не желаете чтобы ссылка на него находилась в нашем каталоге, свяжитесь с нами и мы незамедлительно удалим её. Файлы для обмена на трекере предоставлены пользователями сайта, и администрация не несёт ответственности за их содержание. Просьба не заливать файлы, защищенные авторскими правами, а также файлы нелегального содержания!
cron