Начать новую тему Ответить на тему
Статистика раздачи
Размер: 152.73 МБ | Добавлен: 23 май 2019, 20:05 | Скачали: 0
Сидеров: 0  [0 байт/сек]    Личеров: 0  [0 байт/сек]
Пред. тема | След. тема 

Автор
Сообщение

СообщениеДобавлено: 23 май 2019, 20:05 

Ответить с цитатой 

Marco feat. Jesse Brade - I Like Chopin (MCD)
Жанр: Eurohouse
Год выпуска диска: 2003
Производитель диска: Germany
Аудио кодек: APE
Тип рипа: image+.cue
Битрейт аудио: lossless
Продолжительность: 21:51
Трэклист:
1 I Like Chopin (Radio Edit) (3:53)
2 I Like Chopin (Extended Edit) (5:45)
3 I Like Chopin (Deep Blue Mix) (5:52)
4 I Like Chopin (FvB & Borno Mix) (6:22)
Доп. информация: Media Spirit / Edel; 0000015 MSP
Код:
Exact Audio Copy V0.99 prebeta 4 from 23. January 2008
EAC extraction logfile from 3. December 2008, 15:19
Marco feat. Jesse Brade / I Like Chopin
Used drive  : PIONEER DVD-RW  DVR-112D   Adapter: 1  ID: 1
Read mode               : Secure
Utilize accurate stream : Yes
Defeat audio cache      : Yes
Make use of C2 pointers : No
Read offset correction                      : 48
Overread into Lead-In and Lead-Out          : No
Fill up missing offset samples with silence : Yes
Delete leading and trailing silent blocks   : No
Null samples used in CRC calculations       : Yes
Used interface                              : Installed external ASPI interface
Used output format : Internal WAV Routines
Sample format      : 44.100 Hz; 16 Bit; Stereo
TOC of the extracted CD
     Track |   Start  |  Length  | Start sector | End sector
    ---------------------------------------------------------
        1  |  0:00.00 |  3:53.01 |         0  |       17475
        2  |  3:53.01 |  5:45.51 |     17476  |       43401
        3  |  9:38.52 |  5:51.47 |     43402  |       69773
        4  | 15:30.24 |  6:20.65 |     69774  |       98338
Range status and errors
Selected range
   Filename J:\Marco feat. Jesse Brade - I Like Chopin CD5\CDImage.wav
   Peak level 100.0 %
   Range quality 100.0 %
   Test CRC 53E63A42
   Copy CRC 53E63A42
   Copy OK
No errors occurred
AccurateRip summary
Track  1  not present in database
Track  2  not present in database
Track  3  not present in database
Track  4  not present in database
None of the tracks are present in the AccurateRip database
End of status report
Код:
AUDIOCHECKER v2.0 beta (build 457) - by Dester - opdester@freemail.hu
~~~~~~~~~~~~~~~~~~~~~~~~~~~~~~~~~~
-=== DO NOT EDIT THIS FILE! ===-
Path: ...\Marco feat. Jesse Brade - I Like Chopin CD5
01 -=- CDImage.wav -=- MPEG (95%)
228546532
Аудиочекеру спектр не нравится, поэтому смотрим на спектрограмму.
Код:
[url=https://fastpic.ru/view/3/2009/1023/8d7a4dc9d32cfd3751b56d189f17c00f.jpg.html][img]http://i3.fastpic.ru/thumb/2009/1023/0f/8d7a4dc9d32cfd3751b56d189f17c00f.jpeg[/img][/url]
И еще немного обработки на бессмертное творение Gazebo...
Понравилась раздача? Плюсони мне в репутацию
Правила, инструкции, FAQ!!!
Торрент  Добавлен [23 май 2019, 20:05] Скачать торрент Магнет ссылка
Скачать торрент
[ Размер 12.7 КБ / Просмотров 3 ]

Статус
Проверен 
 
Размер  152.73 МБ
Приватный: Нет (DHT включён)
.torrent скачан  0
Как залить торрент? | Как скачать Torrent? | Ошибка в торренте? Качайте магнет  


     Отправить личное сообщение
   
Страница 1 из 1
Показать сообщения за:  Поле сортировки  
Начать новую тему Ответить на тему


Сейчас этот форум просматривают: нет зарегистрированных пользователей и гости: 0


Вы не можете начинать темы
Вы не можете отвечать на сообщения
Вы не можете редактировать свои сообщения
Вы не можете удалять свои сообщения
Вы не можете добавлять вложения

Перейти:  
Ресурс не предоставляет электронные версии произведений, а занимается лишь коллекционированием и каталогизацией ссылок, присылаемых и публикуемых на форуме нашими читателями. Если вы являетесь правообладателем какого-либо представленного материала и не желаете чтобы ссылка на него находилась в нашем каталоге, свяжитесь с нами и мы незамедлительно удалим её. Файлы для обмена на трекере предоставлены пользователями сайта, и администрация не несёт ответственности за их содержание. Просьба не заливать файлы, защищенные авторскими правами, а также файлы нелегального содержания!
cron