Начать новую тему Ответить на тему
Статистика раздачи
Размер: 99.28 МБ | Добавлен: 23 май 2019, 20:08 | Скачали: 0
Сидеров: 0  [0 байт/сек]    Личеров: 0  [0 байт/сек]
Пред. тема | След. тема 

Автор
Сообщение

СообщениеДобавлено: 23 май 2019, 20:08 

Ответить с цитатой 

Mandee – Make My Dreams Come True!
Жанр: Euro House
Страна-производитель диска: Germany
Год издания диска: 2000
Издатель (лейбл): GmbH
Номер по каталогу: GIB006835
Аудиокодек: FLAC (*.flac)
Тип рипа: image+.cue
Битрейт аудио: lossless
Продолжительность: 12:10
Источник (релизер): Audio CD
Наличие сканов в содержимом раздачи: да
Треклист:
01 Make My Dreams Come True 3:50
02 Make My Dreams Come True (Extended Version) 4:25
03 Make My Dreams Come True (Karaoke Version) 3:50
Код:
Exact Audio Copy V0.99 prebeta 5 from 4. May 2009
EAC extraction logfile from 1. November 2011, 13:21
Mandee / Make My Dreams Come True!
Used drive  : HL-DT-STDVDRAM GSA-T50N   Adapter: 1  ID: 0
Read mode               : Secure
Utilize accurate stream : Yes
Defeat audio cache      : Yes
Make use of C2 pointers : No
Read offset correction                      : 667
Overread into Lead-In and Lead-Out          : No
Fill up missing offset samples with silence : Yes
Delete leading and trailing silent blocks   : No
Null samples used in CRC calculations       : Yes
Used interface                              : Native Win32 interface for Win NT & 2000
Used output format : Internal WAV Routines
Sample format      : 44.100 Hz; 16 Bit; Stereo
TOC of the extracted CD
     Track |   Start  |  Length  | Start sector | End sector
    ---------------------------------------------------------
        1  |  0:00.00 |  3:52.21 |         0    |    17420
        2  |  3:52.21 |  4:27.44 |     17421    |    37489
        3  |  8:19.65 |  3:50.31 |     37490    |    54770
Range status and errors
Selected range
     Filename C:\Users\Fancy\Desktop\Mandee - Make My Dreams Come True!.wav
     Peak level 99.0 %
     Range quality 100.0 %
     Test CRC 8C2D60D5
     Copy CRC 8C2D60D5
     Copy OK
No errors occurred
AccurateRip summary
Track  1  not present in database
Track  2  not present in database
Track  3  not present in database
None of the tracks are present in the AccurateRip database
End of status report
Код:
REM GENRE Eurodance
REM DATE 2000
REM DISCID 1102DA03
REM COMMENT "ExactAudioCopy v0.99pb5"
PERFORMER "Mandee"
TITLE "Make My Dreams Come True!"
FILE "Mandee - Make My Dreams Come True!.flac" WAVE
  TRACK 01 AUDIO
    TITLE "Make My Dreams Come True "
    PERFORMER "Mandee"
    INDEX 01 00:00:00
  TRACK 02 AUDIO
    TITLE "Make My Dreams Come True (Extended Version) "
    PERFORMER "Mandee"
    INDEX 01 03:52:21
  TRACK 03 AUDIO
    TITLE "Make My Dreams Come True (Karaoke Version)"
    PERFORMER "Mandee"
    INDEX 01 08:19:65
Код:
[url=https://fastpic.ru/view/32/2011/1101/b26a42eb857639ae7122394a750f7cb3.jpg.html][img]http://i32.fastpic.ru/thumb/2011/1101/b3/b26a42eb857639ae7122394a750f7cb3.jpeg[/img][/url][url=https://fastpic.ru/view/32/2011/1101/4e189631351d83a9ec70bfaaa9747398.jpg.html][img]http://i32.fastpic.ru/thumb/2011/1101/98/4e189631351d83a9ec70bfaaa9747398.jpeg[/img][/url][url=https://fastpic.ru/view/31/2011/1101/40fca0d09de530b690819cd3b8bc8399.jpg.html][img]http://i31.fastpic.ru/thumb/2011/1101/99/40fca0d09de530b690819cd3b8bc8399.jpeg[/img][/url]
Правила, инструкции, FAQ!!!
Торрент  Добавлен [23 май 2019, 20:08] Скачать торрент Магнет ссылка
Скачать торрент
[ Размер 16.44 КБ / Просмотров 5 ]

Статус
Проверен 
 
Размер  99.28 МБ
Приватный: Нет (DHT включён)
.torrent скачан  0
Как залить торрент? | Как скачать Torrent? | Ошибка в торренте? Качайте магнет  


     Отправить личное сообщение
   
Страница 1 из 1
Показать сообщения за:  Поле сортировки  
Начать новую тему Ответить на тему


Сейчас этот форум просматривают: нет зарегистрированных пользователей и гости: 0


Вы не можете начинать темы
Вы не можете отвечать на сообщения
Вы не можете редактировать свои сообщения
Вы не можете удалять свои сообщения
Вы не можете добавлять вложения

Перейти:  
Ресурс не предоставляет электронные версии произведений, а занимается лишь коллекционированием и каталогизацией ссылок, присылаемых и публикуемых на форуме нашими читателями. Если вы являетесь правообладателем какого-либо представленного материала и не желаете чтобы ссылка на него находилась в нашем каталоге, свяжитесь с нами и мы незамедлительно удалим её. Файлы для обмена на трекере предоставлены пользователями сайта, и администрация не несёт ответственности за их содержание. Просьба не заливать файлы, защищенные авторскими правами, а также файлы нелегального содержания!
cron