Начать новую тему Ответить на тему
Статистика раздачи
Размер: 185.73 МБ | Добавлен: 23 май 2019, 20:08 | Скачали: 0
Сидеров: 0  [0 байт/сек]    Личеров: 0  [0 байт/сек]
Пред. тема | След. тема 

Автор
Сообщение

СообщениеДобавлено: 23 май 2019, 20:08 

Ответить с цитатой 

Limited Edition / There's Nothing That Compares (To Your Love) (CDM)
Жанр: Euro House
Страна-производитель диска: Germany
Год издания диска: 1997
Издатель (лейбл): Coconut Records
Номер по каталогу: 74321 53470 2
Страна: Germany
Аудио кодек: FLAC (*.flac)
Тип рипа: image+.cue
Битрейт аудио: lossless
Продолжительность: 00:25:20
Источник (релизер): Sephirotto (собственный рип)
Наличие сканов в содержимом раздачи: да
Треклист:
1 - There's Nothing That Compares (Radio Mix)
2 - There's Nothing That Compares (Extended Mix)
3 - There's Nothing That Compares (Slow Motion Mix)
4 - There's Nothing That Compares (Andy Matern Club Radio Edit)
5 - There's Nothing That Compares (Sonic Piracy Mix)
Код:
Exact Audio Copy V0.99 prebeta 5 from 4. May 2009
Отчёт EAC об извлечении, выполненном 21. января 2011, 13:30
Limited Edition / There's Nothing That Compares (To Your Love)
Дисковод: Optiarc DVD RW AD-7243S   Adapter: 4  ID: 1
Режим чтения                 : Достоверность
Использование точного потока : Да
Отключение кэша аудио        : Да
Использование указателей C2  : Нет
Коррекция смещения при чтении                     : 48
Способность читать области Lead-in и Lead-out     : Нет
Заполнение пропущенных сэмплов тишиной            : Да
Удаление блоков с тишиной в начале и конце        : Нет
При вычислениях CRC использовались нулевые сэмплы : Да
Интерфейс                                         : Установленный внешний ASPI-интерфейс
Выходной формат : Внутренние WAV-операции
Формат сэмплов  : 44.100 Гц; 16 бит; стерео
TOC извлечённого CD
     Трек |   Старт  | Длительность | Начальный сектор | Конечный сектор
    ---------------------------------------------------------------------
       1  |  0:00.32 |    4:01.25   |          32      |      18131
       2  |  4:01.57 |    5:51.68   |       18132      |      44524
       3  |  9:53.50 |    5:11.32   |       44525      |      67881
       4  | 15:05.07 |    4:11.05   |       67882      |      86711
       5  | 19:16.12 |    6:05.20   |       86712      |     114106
Характеристики диапазона извлечения и сообщения об ошибках
Выбранный диапазон
     Имя файла D:\Purity\Limited Edition - There's Nothing That Compares (To Your Love) 1997 Lossless\Limited Edition - There's Nothing That Compares (To Your Love).wav
     Пиковый уровень 99.4 %
     Качество диапазона 100.0 %
     CRC теста 257180A1
     CRC копии 257180A1
     Копирование... OK
Ошибок не произошло
Конец отчёта
Код:
REM GENRE "Euro House"
REM DATE 1997
REM DISCID 3D05F105
REM COMMENT "ExactAudioCopy v0.99pb5"
PERFORMER "Limited Edition"
TITLE "There's Nothing That Compares (To Your Love)"
FILE "Limited Edition - There's Nothing That Compares (To Your Love).wav" WAVE
  TRACK 01 AUDIO
    TITLE "There's Nothing That Compares (To Your Love) (Radio Mix)"
    PERFORMER "Limited Edition"
    INDEX 00 00:00:00
    INDEX 01 00:00:32
  TRACK 02 AUDIO
    TITLE "There's Nothing That Compares (To Your Love) (Extended Mix)"
    PERFORMER "Limited Edition"
    INDEX 00 04:00:37
    INDEX 01 04:01:57
  TRACK 03 AUDIO
    TITLE "There's Nothing That Compares (To Your Love) (Slow Motion Mix)"
    PERFORMER "Limited Edition"
    INDEX 00 09:51:65
    INDEX 01 09:53:50
  TRACK 04 AUDIO
    TITLE "There's Nothing That Compares (To Your Love) (Club Radio Edit)"
    PERFORMER "Limited Edition"
    INDEX 00 15:03:32
    INDEX 01 15:05:07
  TRACK 05 AUDIO
    TITLE "There's Nothing That Compares (To Your Love) (Sonic Piracy Remix)"
    PERFORMER "Limited Edition"
    INDEX 00 19:14:57
    INDEX 01 19:16:12
Доп. информация: Рип с диска, привезенного из Германии. Красивый мелодичный трек, отличные ремиксы, отдельного внимания заслуживает ремикс Club Radio Edit by Andy Matern. Впоследствии эта песня была исполнена группой Bad Boys Blue на альбоме 1999 года.
http://www.discogs.com/Limited-Edition-Theres-Nothing-That-Compares-To-Your-Love/release/2208887

http://vk.com/bad_boys_blue_official Официальная группа Bad Boys Blue ВКонтакте
Trevor Taylor ex Bad Boys Blue Projects:
http://vkontakte.ru/club10898238 Группа памяти Тревора Тэйлора ВКонтакте

https://rutracker.org/forum/viewtopic.php?t=3310705 Неизданный альбом Supa T - Second Life
https://rutracker.org/forum/viewtopic.php?t=2972319 Дискография Supa T and TPA в mp3 320 кбит/с
https://rutracker.org/forum/viewtopic.php?t=3021422 Дискография Supa T and TPA в lossless
https://rutracker.org/forum/viewtopic.php?t=3024459 2 сингла проекта Тревора Mondo Club
https://rutracker.org/forum/viewtopic.php?t=3123918 Mondo Club Discography (lossless)
https://rutracker.org/forum/viewtopic.php?t=2972290 Еще один сингл с вокалом Тревора Avancada - Ha Deng
https://rutracker.org/forum/viewtopic.php?t=3042465 Дискография группы Umoya в mp3
https://rutracker.org/forum/viewtopic.php?t=3179686 Дискография Umoya в lossless
https://rutracker.org/forum/viewtopic.php?t=3053509 Видео на песню Supa T - Love & Respect
https://rutracker.org/forum/viewtopic.php?t=3111889 Bang Gang - I Like To Move It
https://rutracker.org/forum/viewtopic.php?t=3026260 Street Noise - Our Problem (mp3 320 kbps)
https://rutracker.org/forum/viewtopic.php?t=3125737 Street Noise - Our Problem (Lossless)
https://rutracker.org/forum/viewtopic.php?t=3308131 TPA feat. XL and Supa.T - It's a Rap Thing (Lossless)
Правила, инструкции, FAQ!!!
Торрент  Добавлен [23 май 2019, 20:08] Скачать торрент Магнет ссылка
Скачать торрент
[ Размер 15.36 КБ / Просмотров 1 ]

Статус
Проверен 
 
Размер  185.73 МБ
Приватный: Нет (DHT включён)
.torrent скачан  0
Как залить торрент? | Как скачать Torrent? | Ошибка в торренте? Качайте магнет  


     Отправить личное сообщение
   
Страница 1 из 1
Показать сообщения за:  Поле сортировки  
Начать новую тему Ответить на тему


Сейчас этот форум просматривают: нет зарегистрированных пользователей и гости: 0


Вы не можете начинать темы
Вы не можете отвечать на сообщения
Вы не можете редактировать свои сообщения
Вы не можете удалять свои сообщения
Вы не можете добавлять вложения

Перейти:  
Ресурс не предоставляет электронные версии произведений, а занимается лишь коллекционированием и каталогизацией ссылок, присылаемых и публикуемых на форуме нашими читателями. Если вы являетесь правообладателем какого-либо представленного материала и не желаете чтобы ссылка на него находилась в нашем каталоге, свяжитесь с нами и мы незамедлительно удалим её. Файлы для обмена на трекере предоставлены пользователями сайта, и администрация не несёт ответственности за их содержание. Просьба не заливать файлы, защищенные авторскими правами, а также файлы нелегального содержания!
cron