Начать новую тему Ответить на тему
Статистика раздачи
Размер: 214.31 МБ | Добавлен: 23 май 2019, 20:04 | Скачали: 0
Сидеров: 0  [0 байт/сек]    Личеров: 0  [0 байт/сек]
Пред. тема | След. тема 

Автор
Сообщение

СообщениеДобавлено: 23 май 2019, 20:04 

Ответить с цитатой 

Jump & Joy! / Let's Roll (I Like It) (Maxi-Single)
Жанр: Euro House
Носитель: CD
Страна-производитель диска: Germany
Год издания: 1999
Издатель (лейбл): DS Records
Номер по каталогу: DS 055-70621.3
Аудиокодек: FLAC (*.flac)
Тип рипа: tracks
Битрейт аудио: lossless
Продолжительность: 00 : 18 : 17
Источник (релизер): собственный рип
Наличие сканов в содержимом раздачи: да
Треклист:
1 Let's Roll (I Like It) (Radio Mix) 3:39
2 Let's Roll (I Like It) (Jump & Joy Mix) 6:34
3 Let's Roll (I Like It) (Double-A-Mix) 5:54
4 Let's Roll (I Like It) (DJ Let It Roll !!!) 1:47
5 Let's Roll (I Like It) (Radio Jingle) 0:14
Код:
Information ripping to FLAC, 'Track 1' to 'G:\Pobrane\Jump & Joy!\Let's Roll (I Like It)\01 Jump & Joy! - Let's Roll (I Like It) (Radio Mix).flac'
   Track 1:  Ripped LBA 0 to 16580 (3:41) in 0:16. Filename: G:\Pobrane\Jump & Joy!\Let's Roll (I Like It)\01 Jump & Joy! - Let's Roll (I Like It) (Radio Mix).flac
     AccurateRip: Accurate (confidence 2)     [Pass 1]
     CRC32: EE004FF9     AccurateRip CRC: 449414BD (CRCv2)     [DiscID: 005-0004908f-0014cbf6-38044905-1]
     AccurateRip Verified Confidence 2 [CRCv2 449414bd]
Information ripping to FLAC, 'Track 2' to 'G:\Pobrane\Jump & Joy!\Let's Roll (I Like It)\02 Jump & Joy! - Let's Roll (I Like It) (Jump & Joy Mix).flac'
   Track 2:  Ripped LBA 16580 to 46212 (6:35) in 0:17. Filename: G:\Pobrane\Jump & Joy!\Let's Roll (I Like It)\02 Jump & Joy! - Let's Roll (I Like It) (Jump & Joy Mix).flac
     AccurateRip: Accurate (confidence 2)     [Pass 1]
     CRC32: 36B6794B     AccurateRip CRC: CAB45B46 (CRCv2)     [DiscID: 005-0004908f-0014cbf6-38044905-2]
     AccurateRip Verified Confidence 2 [CRCv2 cab45b46]
Information ripping to FLAC, 'Track 4' to 'G:\Pobrane\Jump & Joy!\Let's Roll (I Like It)\04 Jump & Joy! - Let's Roll (I Like It) (DJ Let It Roll !!!).flac'
   Track 4:  Ripped LBA 72950 to 81117 (1:48) in 0:03. Filename: G:\Pobrane\Jump & Joy!\Let's Roll (I Like It)\04 Jump & Joy! - Let's Roll (I Like It) (DJ Let It Roll !!!).flac
     AccurateRip: Accurate (confidence 2)     [Pass 1]
     CRC32: 48FE58A9     AccurateRip CRC: 624897FE (CRCv2)     [DiscID: 005-0004908f-0014cbf6-38044905-4]
     AccurateRip Verified Confidence 2 [CRCv2 624897fe]
Information ripping to FLAC, 'Track 5' to 'G:\Pobrane\Jump & Joy!\Let's Roll (I Like It)\05 Jump & Joy! - Radio Jingle.flac'
   Track 5:  Ripped LBA 81117 to 82292 (0:15) in 0:00. Filename: G:\Pobrane\Jump & Joy!\Let's Roll (I Like It)\05 Jump & Joy! - Radio Jingle.flac
     AccurateRip: Accurate (confidence 2)     [Pass 1]
     CRC32: 1E1F8E64     AccurateRip CRC: 86E584A1 (CRCv2)     [DiscID: 005-0004908f-0014cbf6-38044905-5]
     AccurateRip Verified Confidence 2 [CRCv2 86e584a1]
Information ripping to FLAC, 'Track 3' to 'G:\Pobrane\Jump & Joy!\Let's Roll (I Like It)\03 Jump & Joy! - Let's Roll (I Like It) (Double-A-Mix).flac'
   Track 3:  Ripped LBA 46212 to 72950 (5:56) in 0:13. Filename: G:\Pobrane\Jump & Joy!\Let's Roll (I Like It)\03 Jump & Joy! - Let's Roll (I Like It) (Double-A-Mix).flac
     AccurateRip: Accurate (confidence 2)     [Pass 1]
     CRC32: 82DD3721     AccurateRip CRC: C595DE0F (CRCv2)     [DiscID: 005-0004908f-0014cbf6-38044905-3]
     AccurateRip Verified Confidence 2 [CRCv2 c595de0f]
Код:
Started at: piątek, 21. 03. 2014. - 15:29.35
5 files found
1 -===- G:\Pobrane\Jump & Joy!\Let's Roll (I Like It)\Jump & Joy! - Let's Roll (I Like It) (Dj Let It Roll !!!).flac
  Extracted successfully
  Conclusion: this track is CDDA with probability 99%
  Tempfile successfully deleted.
2 -===- G:\Pobrane\Jump & Joy!\Let's Roll (I Like It)\Jump & Joy! - Let's Roll (I Like It) (Double-A-Mix).flac
  Extracted successfully
  Conclusion: this track is CDDA with probability 100%
  Tempfile successfully deleted.
3 -===- G:\Pobrane\Jump & Joy!\Let's Roll (I Like It)\Jump & Joy! - Let's Roll (I Like It) (Jump & Joy Mix).flac
  Extracted successfully
  Conclusion: this track is CDDA with probability 99%
  Tempfile successfully deleted.
4 -===- G:\Pobrane\Jump & Joy!\Let's Roll (I Like It)\Jump & Joy! - Let's Roll (I Like It) (Radio Mix).flac
  Extracted successfully
  Conclusion: this track is CDDA with probability 100%
  Tempfile successfully deleted.
5 -===- G:\Pobrane\Jump & Joy!\Let's Roll (I Like It)\Jump & Joy! - Radio Jingle.flac
  Extracted successfully
  Conclusion: this track is CDDA with probability 100%
  Tempfile successfully deleted.
Finished at: piątek, 21. 03. 2014. - 15:30.52 (operation time: 0:01.17)
-----------------------------------------------------------
Started at: piątek, 21. 03. 2014. - 15:31.32
5 files found
1 -===- track 1 in drive LITE-ON DVDRW LH-20A1H
  Track ripped successfully
  Conclusion: this track is CDDA with probability 100%
  Tempfile successfully deleted.
2 -===- track 2 in drive LITE-ON DVDRW LH-20A1H
  Track ripped successfully
  Conclusion: this track is CDDA with probability 100%
  Tempfile successfully deleted.
3 -===- track 3 in drive LITE-ON DVDRW LH-20A1H
  Track ripped successfully
  Conclusion: this track is CDDA with probability 100%
  Tempfile successfully deleted.
4 -===- track 4 in drive LITE-ON DVDRW LH-20A1H
  Track ripped successfully
  Conclusion: this track is CDDA with probability 99%
  Tempfile successfully deleted.
5 -===- track 5 in drive LITE-ON DVDRW LH-20A1H
  Track ripped successfully
  Conclusion: this track is CDDA with probability 100%
  Tempfile successfully deleted.
Finished at: piątek, 21. 03. 2014. - 15:35.55 (operation time: 0:04.23)
Правила, инструкции, FAQ!!!
Торрент  Добавлен [23 май 2019, 20:04] Скачать торрент Магнет ссылка
Скачать торрент
[ Размер 17.91 КБ / Просмотров 3 ]

Статус
Проверен 
 
Размер  214.31 МБ
Приватный: Нет (DHT включён)
.torrent скачан  0
Как залить торрент? | Как скачать Torrent? | Ошибка в торренте? Качайте магнет  


     Отправить личное сообщение
   
Страница 1 из 1
Показать сообщения за:  Поле сортировки  
Начать новую тему Ответить на тему


Сейчас этот форум просматривают: нет зарегистрированных пользователей и гости: 0


Вы не можете начинать темы
Вы не можете отвечать на сообщения
Вы не можете редактировать свои сообщения
Вы не можете удалять свои сообщения
Вы не можете добавлять вложения

Перейти:  
Ресурс не предоставляет электронные версии произведений, а занимается лишь коллекционированием и каталогизацией ссылок, присылаемых и публикуемых на форуме нашими читателями. Если вы являетесь правообладателем какого-либо представленного материала и не желаете чтобы ссылка на него находилась в нашем каталоге, свяжитесь с нами и мы незамедлительно удалим её. Файлы для обмена на трекере предоставлены пользователями сайта, и администрация не несёт ответственности за их содержание. Просьба не заливать файлы, защищенные авторскими правами, а также файлы нелегального содержания!
cron