Начать новую тему Ответить на тему
Статистика раздачи
Размер: 459.03 МБ | Добавлен: 23 май 2019, 20:05 | Скачали: 0
Сидеров: 0  [0 байт/сек]    Личеров: 0  [0 байт/сек]
Пред. тема | След. тема 

Автор
Сообщение

СообщениеДобавлено: 23 май 2019, 20:05 

Ответить с цитатой 

Hylene - Täna Rikun Ma Reegleid
Жанр: Euro-House, Pop
Лейбл: TopTen
Каталог: TOP CD 1190
Страна/Сделано: Estonia
Год издания: 2007
Тип рипа: Image+.Cue
Аудио кодек: FLAC [*.flac]
Метод сжатия аудио: lossless
Продолжительность: 53:53
Источник (релизёр): Рипы с собственных CD (RoxMan)
Наличие сканов: Да
Треклист:
01. Täna Rikun Ma Reegleid (3:45)
02. Unenäos Või Ilmsi (3:18)
03. Ostuparadiis (3:31)
04. Laenatud (3:52)
05. Keelatud Maa (3:27)
06. Vaba Kui Lind (3:25)
07. Sulle Kuulun (3:39)
08. Nii Las Jääb (3:10)
09. Taevas Ja Maa (3:49)
10. You Came (3:25)
11. Miks Kaotan Pea (3:39)
12. Jää (3:57)
13. Taevas Ja Maa (Remix) (3:55)
14. Täna Rikun Ma Reegleid (Summernight Mix) (4:13)
15. Unenäos Või Ilmsi (Acoustic Version) (2:48)
Настоящее имя: Helen Adamson, дата рождения: 26 января 1987 года, Эстония.
Код:
Exact Audio Copy V1.0 beta 3 from 29. August 2011
EAC extraction logfile from 24. August 2013, 15:57
Hylene / Tana Rikun Ma Reegleid
Used drive  : ASUS    DRW-20B1ST   Adapter: 2  ID: 0
Read mode               : Secure
Utilize accurate stream : Yes
Defeat audio cache      : Yes
Make use of C2 pointers : No
Read offset correction                      : 6
Overread into Lead-In and Lead-Out          : No
Fill up missing offset samples with silence : Yes
Delete leading and trailing silent blocks   : No
Null samples used in CRC calculations       : Yes
Used interface                              : Native Win32 interface for Win NT & 2000
Used output format              : User Defined Encoder
Selected bitrate                : 1024 kBit/s
Quality                         : High
Add ID3 tag                     : No
Command line compressor         : C:\Program Files\Exact Audio Copy\Flac\flac.exe
Additional command line options : -V -8 -T "Date=%year%" -T "Genre=%genre%" -T "Comment=Rip made RoxMan, Enjoy!" %source%
TOC of the extracted CD
     Track |   Start  |  Length  | Start sector | End sector
    ---------------------------------------------------------
        1  |  0:00.00 |  3:45.14 |         0    |    16888
        2  |  3:45.14 |  3:18.22 |     16889    |    31760
        3  |  7:03.36 |  3:30.44 |     31761    |    47554
        4  | 10:34.05 |  3:52.02 |     47555    |    64956
        5  | 14:26.07 |  3:26.40 |     64957    |    80446
        6  | 17:52.47 |  3:25.35 |     80447    |    95856
        7  | 21:18.07 |  3:39.04 |     95857    |   112285
        8  | 24:57.11 |  3:09.47 |    112286    |   126507
        9  | 28:06.58 |  3:48.67 |    126508    |   143674
       10  | 31:55.50 |  3:25.31 |    143675    |   159080
       11  | 35:21.06 |  3:39.18 |    159081    |   175523
       12  | 39:00.24 |  3:56.73 |    175524    |   193296
       13  | 42:57.22 |  3:54.44 |    193297    |   210890
       14  | 46:51.66 |  4:12.58 |    210891    |   229848
       15  | 51:04.49 |  2:48.28 |    229849    |   242476
Range status and errors
Selected range
     Filename D:\Hylene - Tana Rikun Ma Reegleid.wav
     Peak level 99.8 %
     Extraction speed 8.6 X
     Range quality 99.9 %
     Test CRC 5C6177FC
     Copy CRC 5C6177FC
     Copy OK
No errors occurred
AccurateRip summary
Track  1  accurately ripped (confidence 1)  [EEE7D6B8]  (AR v1)
Track  2  accurately ripped (confidence 1)  [E7806435]  (AR v1)
Track  3  accurately ripped (confidence 1)  [2B42C824]  (AR v1)
Track  4  accurately ripped (confidence 1)  [CD769C3B]  (AR v1)
Track  5  accurately ripped (confidence 1)  [C3AC119D]  (AR v1)
Track  6  accurately ripped (confidence 1)  [C3BD5C27]  (AR v1)
Track  7  accurately ripped (confidence 1)  [2729581B]  (AR v1)
Track  8  accurately ripped (confidence 1)  [2CC09EE4]  (AR v1)
Track  9  accurately ripped (confidence 1)  [315AA0D0]  (AR v1)
Track 10  accurately ripped (confidence 1)  [3AD4D77D]  (AR v1)
Track 11  accurately ripped (confidence 1)  [FB53EE12]  (AR v1)
Track 12  accurately ripped (confidence 1)  [41591AB8]  (AR v1)
Track 13  accurately ripped (confidence 1)  [1A7652EF]  (AR v1)
Track 14  accurately ripped (confidence 1)  [A3D701B1]  (AR v1)
Track 15  accurately ripped (confidence 1)  [5C46BEF4]  (AR v1)
All tracks accurately ripped
End of status report
==== Log checksum 4AAEAC498A9303D2C38EDE6719270D7BD7C945AD1630FCB98099C1D934D5ECC7 ====

Код:
-----------------------
DON'T MODIFY THIS FILE
-----------------------
PERFORMER: auCDtect Task Manager, ver. 1.5.1RC6 build 1.5.1.7
Copyright (c) 2008-2010 y-soft. All rights reserved
[url=http://y-soft.org]http://y-soft.org[/url]
ANALYZER: auCDtect: CD records authenticity detector, version 0.8.2
Copyright (c) 2004 Oleg Berngardt. All rights reserved.
Copyright (c) 2004 Alexander Djourik. All rights reserved.
FILE: Hylene - Tana Rikun Ma Reegleid.flac
  Size: 424348056 Hash: 019C0E15339DC5968220C462AC6EDF86 Accuracy: -m0
  Conclusion: CDDA 100%
  Signature: A1701D8A42162473C0818ED0F606C5EBF1A1072D



Программе Tau Analyzer не удалось сделать заключение по данному диску,
определился, как неизвестный. На диске присутствуют CDDA и MPEG треки.
Поэтому дополнительно прилагается лог-файл программы auCDtect.
Рип никаким изменениям и модификациям не подвергался!
Диск не пиратка, изготовитель - фирма Baltic Disc, Эстония.

PS: раздача с 18:00 до 23:30 (время московское).
Поддерживая раздачу, вы даёте возможность скачать её другим !
Правила, инструкции, FAQ!!!
Торрент  Добавлен [23 май 2019, 20:05] Скачать торрент Магнет ссылка
Скачать торрент
[ Размер 19.17 КБ / Просмотров 3 ]

Статус
Проверен 
 
Размер  459.03 МБ
Приватный: Нет (DHT включён)
.torrent скачан  0
Как залить торрент? | Как скачать Torrent? | Ошибка в торренте? Качайте магнет  


     Отправить личное сообщение
   
Страница 1 из 1
Показать сообщения за:  Поле сортировки  
Начать новую тему Ответить на тему


Сейчас этот форум просматривают: нет зарегистрированных пользователей и гости: 0


Вы не можете начинать темы
Вы не можете отвечать на сообщения
Вы не можете редактировать свои сообщения
Вы не можете удалять свои сообщения
Вы не можете добавлять вложения

Перейти:  
Ресурс не предоставляет электронные версии произведений, а занимается лишь коллекционированием и каталогизацией ссылок, присылаемых и публикуемых на форуме нашими читателями. Если вы являетесь правообладателем какого-либо представленного материала и не желаете чтобы ссылка на него находилась в нашем каталоге, свяжитесь с нами и мы незамедлительно удалим её. Файлы для обмена на трекере предоставлены пользователями сайта, и администрация не несёт ответственности за их содержание. Просьба не заливать файлы, защищенные авторскими правами, а также файлы нелегального содержания!
cron