Начать новую тему Ответить на тему
Статистика раздачи
Размер: 203.51 МБ | Добавлен: 23 май 2019, 20:07 | Скачали: 0
Сидеров: 0  [0 байт/сек]    Личеров: 0  [0 байт/сек]
Пред. тема | След. тема 

Автор
Сообщение

СообщениеДобавлено: 23 май 2019, 20:07 

Ответить с цитатой 

Speed Limit ‎– Cry For Your Love (Maxi CD)
Жанр: Euro House, Happy Hardcore
Страна-производитель диска: Spain
Год издания: 1997
Издатель (лейбл): Code Music
Номер по каталогу: CO-40030-CX
Аудиокодек: FLAC (*.flac)
Тип рипа: image+.cue
Битрейт аудио: lossless
Продолжительность: 21:04
Источник (релизер): Собственный рип Собственный рип
Наличие сканов в содержимом раздачи: да
Треклист:
1 Cry For Your Love (Radio Edit) 3:44
2 Cry For Your Love (Speed Mix) 5:48
3 Cry For Your Love (Your Version) 4:47
4 Cry For Your Love (Love Version) 6:39
Код:
Exact Audio Copy V1.0 beta 2 from 29. April 2011
Отчёт EAC об извлечении, выполненном 7. января 2013, 22:50
Speed Limit / Cry For Your Love
Дисковод: Optiarc DVD RW AD-7200S   Adapter: 2  ID: 0
Режим чтения                 : Достоверность
Использование точного потока : Да
Отключение кэша аудио        : Да
Использование указателей C2  : Нет
Коррекция смещения при чтении                     : 48
Способность читать области Lead-in и Lead-out     : Нет
Заполнение пропущенных сэмплов тишиной            : Да
Удаление блоков с тишиной в начале и конце        : Нет
При вычислениях CRC использовались нулевые сэмплы : Да
Интерфейс                                         : Встроенный Win32-интерфейс для Win NT/2000
Выходной формат          : Пользовательский кодировщик
Выбранный битрейт        : 1024 kBit/s
Качество                 : Высокий
Добавление ID3-тега      : Да
Утилита сжатия           : C:\Program Files\Exact Audio Copy\FLAC\FLAC.EXE
Дополнительные параметры : -6 -V -T "ARTIST=%artist%" -T "TITLE=%title%" -T "ALBUM=%albumtitle%" -T "DATE=%year%" -T "TRACKNUMBER=%tracknr%" -T "GENRE=%genre%" -T "COMMENT=%comment%" -T "BAND=%albuminterpret%" -T "COMPOSER=%composer%" %haslyrics%--tag-from-
TOC извлечённого CD
     Трек |   Старт  | Длительность | Начальный сектор | Конечный сектор
    ---------------------------------------------------------------------
       1  |  0:00.00 |    3:46.35   |           0      |      16984
       2  |  3:46.35 |    5:49.15   |       16985      |      43174
       3  |  9:35.50 |    4:49.70   |       43175      |      64919
       4  | 14:25.45 |    6:38.65   |       64920      |      94834
Характеристики диапазона извлечения и сообщения об ошибках
Выбранный диапазон
     Имя файла C:\Documents and Settings\vova\Рабочий стол\Speed Limit - Cry For Your Love.wav
     Пиковый уровень 100.0 %
     Скорость извлечения 2.4 X
     Качество диапазона 99.9 %
     CRC теста F338E37C
     CRC копии F338E37C
     Копирование... OK
Ошибок не произошло
AccurateRip: сводка
Трек  1  отсутствует в базе данных
Трек  2  отсутствует в базе данных
Трек  3  отсутствует в базе данных
Трек  4  отсутствует в базе данных
Ни одного трека нет в базе AccurateRip
Конец отчёта
Доп. информация: http://www.discogs.com/Speed-Limit-Cry-For-Your-Love/release/724915
Правила, инструкции, FAQ!!!
Торрент  Добавлен [23 май 2019, 20:07] Скачать торрент Магнет ссылка
Скачать торрент
[ Размер 1.32 КБ / Просмотров 6 ]

Статус
Проверен 
 
Размер  203.51 МБ
Приватный: Нет (DHT включён)
.torrent скачан  0
Как залить торрент? | Как скачать Torrent? | Ошибка в торренте? Качайте магнет  


     Отправить личное сообщение
   
Страница 1 из 1
Показать сообщения за:  Поле сортировки  
Начать новую тему Ответить на тему


Сейчас этот форум просматривают: нет зарегистрированных пользователей и гости: 0


Вы не можете начинать темы
Вы не можете отвечать на сообщения
Вы не можете редактировать свои сообщения
Вы не можете удалять свои сообщения
Вы не можете добавлять вложения

Перейти:  
Ресурс не предоставляет электронные версии произведений, а занимается лишь коллекционированием и каталогизацией ссылок, присылаемых и публикуемых на форуме нашими читателями. Если вы являетесь правообладателем какого-либо представленного материала и не желаете чтобы ссылка на него находилась в нашем каталоге, свяжитесь с нами и мы незамедлительно удалим её. Файлы для обмена на трекере предоставлены пользователями сайта, и администрация не несёт ответственности за их содержание. Просьба не заливать файлы, защищенные авторскими правами, а также файлы нелегального содержания!
cron