Начать новую тему Ответить на тему
Статистика раздачи
Размер: 117.62 МБ | Добавлен: 23 май 2019, 20:05 | Скачали: 0
Сидеров: 0  [0 байт/сек]    Личеров: 0  [0 байт/сек]
Пред. тема | След. тема 

Автор
Сообщение

СообщениеДобавлено: 23 май 2019, 20:05 

Ответить с цитатой 

Lovenet - Mondsüchtig (Maxi CD)
Жанр: Euro House, Happy Hardcore
Страна-производитель диска: Germany
Год издания диска: 1996
Издатель (лейбл): Hansa
Номер по каталогу: 74321 35708 2
Аудио кодек: FLAC (*.flac)
Тип рипа: image+.cue
Битрейт аудио: lossless
Продолжительность: 15,18
Источник (релизер): Собственный рип
Наличие сканов в содержимом раздачи: нет
Треклист:
1 Mondsüchtig (Radio Edit) 3:40
2 Mondsüchtig (Extended Version) 5:57
3 Mondsüchtig (Vollmond Mix) 6:21
Код:
Exact Audio Copy V0.99 prebeta 5 from 4. May 2009
Отчёт EAC об извлечении, выполненном 1. января 2002, 3:25
LOVENET / Mondsuchtig
Дисковод: Optiarc DVD RW AD-7200S   Adapter: 2  ID: 0
Режим чтения                 : Достоверность
Использование точного потока : Да
Отключение кэша аудио        : Да
Использование указателей C2  : Нет
Коррекция смещения при чтении                     : 48
Способность читать области Lead-in и Lead-out     : Нет
Заполнение пропущенных сэмплов тишиной            : Да
Удаление блоков с тишиной в начале и конце        : Нет
При вычислениях CRC использовались нулевые сэмплы : Да
Интерфейс                                         : Установленный внешний ASPI-интерфейс
Выходной формат : Внутренние WAV-операции
Формат сэмплов  : 44.100 Гц; 16 бит; стерео
TOC извлечённого CD
     Трек |   Старт  | Длительность | Начальный сектор | Конечный сектор
    ---------------------------------------------------------------------
       1  |  0:00.32 |    3:44.50   |          32      |      16881
       2  |  3:45.07 |    6:01.70   |       16882      |      44026
       3  |  9:47.02 |    6:21.68   |       44027      |      72669
Характеристики диапазона извлечения и сообщения об ошибках
Выбранный диапазон
     Имя файла H:\Documents and Settings\vova\Рабочий стол\Новая папка\LOVENET - Mondsuchtig.wav
     Пиковый уровень 99.0 %
     Качество диапазона 100.0 %
     CRC теста 350410AD
     CRC копии 350410AD
     Копирование... OK
Ошибок не произошло
Конец отчёта
Код:
REM GENRE Electronic
REM DATE 1996
REM DISCID 2303C803
REM COMMENT "ExactAudioCopy v0.99pb5"
PERFORMER "LOVENET"
TITLE "Mondsuchtig"
FILE "LOVENET - Mondsuchtig.wav" WAVE
  TRACK 01 AUDIO
    TITLE "Mondsuchtig (Radio Edit)"
    PERFORMER "LOVENET"
    INDEX 00 00:00:00
    INDEX 01 00:00:32
  TRACK 02 AUDIO
    TITLE "Mondsuchtig (Extended Version)"
    PERFORMER "LOVENET"
    INDEX 00 03:42:25
    INDEX 01 03:45:07
  TRACK 03 AUDIO
    TITLE "Mondsuchtig (Vollmond Mix)"
    PERFORMER "LOVENET"
    INDEX 00 09:44:25
    INDEX 01 09:47:02
Доп. информация: http://www.discogs.com/Lovenet-Mondsüchtig/release/649302
Правила, инструкции, FAQ!!!
Торрент  Добавлен [23 май 2019, 20:05] Скачать торрент Магнет ссылка
Скачать торрент
[ Размер 878 байт / Просмотров 3 ]

Статус
Проверен 
 
Размер  117.62 МБ
Приватный: Нет (DHT включён)
.torrent скачан  0
Как залить торрент? | Как скачать Torrent? | Ошибка в торренте? Качайте магнет  


     Отправить личное сообщение
   
Страница 1 из 1
Показать сообщения за:  Поле сортировки  
Начать новую тему Ответить на тему


Сейчас этот форум просматривают: нет зарегистрированных пользователей и гости: 0


Вы не можете начинать темы
Вы не можете отвечать на сообщения
Вы не можете редактировать свои сообщения
Вы не можете удалять свои сообщения
Вы не можете добавлять вложения

Перейти:  
Ресурс не предоставляет электронные версии произведений, а занимается лишь коллекционированием и каталогизацией ссылок, присылаемых и публикуемых на форуме нашими читателями. Если вы являетесь правообладателем какого-либо представленного материала и не желаете чтобы ссылка на него находилась в нашем каталоге, свяжитесь с нами и мы незамедлительно удалим её. Файлы для обмена на трекере предоставлены пользователями сайта, и администрация не несёт ответственности за их содержание. Просьба не заливать файлы, защищенные авторскими правами, а также файлы нелегального содержания!
cron