Начать новую тему Ответить на тему
Статистика раздачи
Размер: 193.07 МБ | Добавлен: 23 май 2019, 20:05 | Скачали: 0
Сидеров: 0  [0 байт/сек]    Личеров: 0  [0 байт/сек]
Пред. тема | След. тема 

Автор
Сообщение

СообщениеДобавлено: 23 май 2019, 20:05 

Ответить с цитатой 

Groove Empire Feat. Carina – Music Will Never Die (Maxi CD)
Жанр: Euro House
Страна-производитель диска: Switzerland
Год издания: 2009
Издатель (лейбл): Water Flame Records
Номер по каталогу: WFR90201
Аудиокодек: FLAC (*.flac)
Тип рипа: image+.cue
Битрейт аудио: lossless
Продолжительность: 19:18
Источник (релизер): Собственный рип
Наличие сканов в содержимом раздачи: да
Треклист:
1 Music Will Never Die (Radio Edit) 3:43
2 Music Will Never Die (Extended Mix) 5:46
3 Music Will Never Die (Energy Mix) 4:32
4 Music Will Never Die (Crazy Rave) 5:11
Код:
Exact Audio Copy V1.0 beta 2 from 29. April 2011
Отчёт EAC об извлечении, выполненном 5. апреля 2012, 10:06
Groove Empire Feat. Carina  / Music Will Never Die
Дисковод: Optiarc DVD RW AD-7200S   Adapter: 2  ID: 0
Режим чтения                 : Достоверность
Использование точного потока : Да
Отключение кэша аудио        : Да
Использование указателей C2  : Нет
Коррекция смещения при чтении                     : 48
Способность читать области Lead-in и Lead-out     : Нет
Заполнение пропущенных сэмплов тишиной            : Да
Удаление блоков с тишиной в начале и конце        : Нет
При вычислениях CRC использовались нулевые сэмплы : Да
Интерфейс                                         : Встроенный Win32-интерфейс для Win NT/2000
Выходной формат : Внутренние WAV-операции
Формат сэмплов  : 44.100 Гц; 16 бит; стерео
TOC извлечённого CD
     Трек |   Старт  | Длительность | Начальный сектор | Конечный сектор
    ---------------------------------------------------------------------
       1  |  0:00.00 |    3:44.67   |           0      |      16866
       2  |  3:44.67 |    5:48.21   |       16867      |      42987
       3  |  9:33.13 |    4:34.02   |       42988      |      63539
       4  | 14:07.15 |    5:11.44   |       63540      |      86908
Характеристики диапазона извлечения и сообщения об ошибках
Выбранный диапазон
     Имя файла C:\Documents and Settings\vova\Рабочий стол\Groove Empire Feat. Carina  - Music Will Never Die.wav
     Пиковый уровень 98.3 %
     Скорость извлечения 3.1 X
     Качество диапазона 100.0 %
     CRC теста BEF24A43
     CRC копии BEF24A43
     Копирование... OK
Ошибок не произошло
AccurateRip: сводка
Трек  1  отсутствует в базе данных
Трек  2  отсутствует в базе данных
Трек  3  отсутствует в базе данных
Трек  4  отсутствует в базе данных
Ни одного трека нет в базе AccurateRip
Конец отчёта
Доп. информация: http://www.discogs.com/Groove-Empire-Feat-Carina-Music-Will-Never-Die/release/1784664
Правила, инструкции, FAQ!!!
Торрент  Добавлен [23 май 2019, 20:05] Скачать торрент Магнет ссылка
Скачать торрент
[ Размер 1.47 КБ / Просмотров 5 ]

Статус
Проверен 
 
Размер  193.07 МБ
Приватный: Нет (DHT включён)
.torrent скачан  0
Как залить торрент? | Как скачать Torrent? | Ошибка в торренте? Качайте магнет  


     Отправить личное сообщение
   
Страница 1 из 1
Показать сообщения за:  Поле сортировки  
Начать новую тему Ответить на тему


Сейчас этот форум просматривают: нет зарегистрированных пользователей и гости: 0


Вы не можете начинать темы
Вы не можете отвечать на сообщения
Вы не можете редактировать свои сообщения
Вы не можете удалять свои сообщения
Вы не можете добавлять вложения

Перейти:  
Ресурс не предоставляет электронные версии произведений, а занимается лишь коллекционированием и каталогизацией ссылок, присылаемых и публикуемых на форуме нашими читателями. Если вы являетесь правообладателем какого-либо представленного материала и не желаете чтобы ссылка на него находилась в нашем каталоге, свяжитесь с нами и мы незамедлительно удалим её. Файлы для обмена на трекере предоставлены пользователями сайта, и администрация не несёт ответственности за их содержание. Просьба не заливать файлы, защищенные авторскими правами, а также файлы нелегального содержания!
cron