Начать новую тему Ответить на тему
Статистика раздачи
Размер: 390.94 МБ | Добавлен: 23 май 2019, 20:03 | Скачали: 0
Сидеров: 0  [0 байт/сек]    Личеров: 0  [0 байт/сек]
Пред. тема | След. тема 

Автор
Сообщение

СообщениеДобавлено: 23 май 2019, 20:03 

Ответить с цитатой 

Floorfilla • Le Voyage
Label: Star Music
Catalog#: SM-049
Жанр: Euro House
Год выпуска диска: 2003
Производитель диска: Russia
Аудио кодек: FLAC
Тип рипа: tracks+.cue
Битрейт аудио: lossless
Discogs
Трэклист:
1. Welcome Party People — 2:00
2. Badboy — 4:32
3. Anthem #6 (Cassez La Boite) — 3:21
4. Kosmiklove — 3:26
5. Game Over — 4:50
6. Sister Golden Hair — 3:56
7. Le Truc Bidon (All The Shit Things) — 4:26
8. Floorfilla Loves You — 0:44
9. Time 2 Move — 3:41
10. 6 Is Danger — 4:07
11. Mayday! — 3:28
12. Le Delire — 3:54
13. Was? — 0:32
14. My Melody— 5:01
15. Osama Rave — 0:56
16. Floor-Fee-La — 24:13
Код:
Exact Audio Copy V0.99 prebeta 5 from 4. May 2009
Отчёт EAC об извлечении, выполненном 1. января 2010, 16:08
Floorfilla / Le Voyage (SM-049) [Star Music]
Дисковод: ASUS    DRW-2014L1T   Adapter: 2  ID: 0
Режим чтения                 : Достоверность
Использование точного потока : Да
Отключение кэша аудио        : Да
Использование указателей C2  : Нет
Коррекция смещения при чтении                     : 6
Способность читать области Lead-in и Lead-out     : Да
Заполнение пропущенных сэмплов тишиной            : Да
Удаление блоков с тишиной в начале и конце        : Нет
При вычислениях CRC использовались нулевые сэмплы : Да
Интерфейс                                         : Установленный внешний ASPI-интерфейс
Обработка зазоров                                 : Добавлено к предыдущему треку
Выходной формат          : Пользовательский кодировщик
Выбранный битрейт        : 1024 kBit/s
Качество                 : Высокий
Добавление ID3-тэга      : Да
Утилита сжатия           : C:\Program Files\FLAC\flac.exe
Дополнительные параметры : -8 -V -T "ARTIST=%a" -T "TITLE=%t" -T "ALBUM=%g" -T "DATE=%y" -T "TRACKNUMBER=%n" -T "GENRE=%m" -T "COMMENT=EAC FLAC -8" %s
TOC извлечённого CD
     Трек |   Старт  | Длительность | Начальный сектор | Конечный сектор
    ---------------------------------------------------------------------
       1  |  0:00.00 |    1:59.60   |           0      |       8984
       2  |  1:59.60 |    4:32.14   |        8985      |      29398
       3  |  6:31.74 |    3:21.06   |       29399      |      44479
       4  |  9:53.05 |    3:25.42   |       44480      |      59896
       5  | 13:18.47 |    4:50.12   |       59897      |      81658
       6  | 18:08.59 |    3:56.06   |       81659      |      99364
       7  | 22:04.65 |    4:26.26   |       99365      |     119340
       8  | 26:31.16 |    0:44.10   |      119341      |     122650
       9  | 27:15.26 |    3:41.11   |      122651      |     139236
      10  | 30:56.37 |    4:07.20   |      139237      |     157781
      11  | 35:03.57 |    3:28.04   |      157782      |     173385
      12  | 38:31.61 |    3:54.09   |      173386      |     190944
      13  | 42:25.70 |    0:32.05   |      190945      |     193349
      14  | 42:58.00 |    5:01.28   |      193350      |     215952
      15  | 47:59.28 |    0:56.17   |      215953      |     220169
      16  | 48:55.45 |    6:02.02   |      220170      |     247321
Трек  1
     Имя файла D:\Floorfilla • Le Voyage\01 – Welcome Party People!.wav
     Длина предзазора  0:00:02.00
     Пиковый уровень 99.9 %
     Качество трека 100.0 %
     CRC теста 6AAC63DC
     CRC копии 6AAC63DC
     Копирование... OK
Трек  2
     Имя файла D:\Floorfilla • Le Voyage\02 – Badboy.wav
     Пиковый уровень 99.9 %
     Качество трека 100.0 %
     CRC теста 7DC67AD3
     CRC копии 7DC67AD3
     Копирование... OK
Трек  3
     Имя файла D:\Floorfilla • Le Voyage\03 – Anthem #6 (Cassez La Boite).wav
     Пиковый уровень 99.9 %
     Качество трека 100.0 %
     CRC теста 02A3238D
     CRC копии 02A3238D
     Копирование... OK
Трек  4
     Имя файла D:\Floorfilla • Le Voyage\04 – Kosmiklove.wav
     Пиковый уровень 100.0 %
     Качество трека 99.9 %
     CRC теста 478B6A8D
     CRC копии 478B6A8D
     Копирование... OK
Трек  5
     Имя файла D:\Floorfilla • Le Voyage\05 – Game Over.wav
     Пиковый уровень 99.9 %
     Качество трека 100.0 %
     CRC теста CE37282E
     CRC копии CE37282E
     Копирование... OK
Трек  6
     Имя файла D:\Floorfilla • Le Voyage\06 – Sister Golden Hair.wav
     Пиковый уровень 99.9 %
     Качество трека 99.9 %
     CRC теста 5D40950C
     CRC копии 5D40950C
     Копирование... OK
Трек  7
     Имя файла D:\Floorfilla • Le Voyage\07 – Le Truc Bidon (All The Shit Things).wav
     Пиковый уровень 99.9 %
     Качество трека 100.0 %
     CRC теста F552CE06
     CRC копии F552CE06
     Копирование... OK
Трек  8
     Имя файла D:\Floorfilla • Le Voyage\08 – Floorfilla Loves You.wav
     Пиковый уровень 99.9 %
     Качество трека 99.7 %
     CRC теста 370C821C
     CRC копии 370C821C
     Копирование... OK
Трек  9
     Имя файла D:\Floorfilla • Le Voyage\09 – Time 2 Move.wav
     Пиковый уровень 99.9 %
     Качество трека 99.9 %
     CRC теста 21C263AD
     CRC копии 21C263AD
     Копирование... OK
Трек 10
     Имя файла D:\Floorfilla • Le Voyage\10 – 6 Is Danger.wav
     Пиковый уровень 100.0 %
     Качество трека 100.0 %
     CRC теста 965E616C
     CRC копии 965E616C
     Копирование... OK
Трек 11
     Имя файла D:\Floorfilla • Le Voyage\11 – Mayday!.wav
     Пиковый уровень 99.9 %
     Качество трека 100.0 %
     CRC теста 37FCC082
     CRC копии 37FCC082
     Копирование... OK
Трек 12
     Имя файла D:\Floorfilla • Le Voyage\12 – Le Delire.wav
     Пиковый уровень 99.8 %
     Качество трека 99.9 %
     CRC теста 284B70A2
     CRC копии 284B70A2
     Копирование... OK
Трек 13
     Имя файла D:\Floorfilla • Le Voyage\13 – Was .wav
     Пиковый уровень 99.9 %
     Качество трека 100.0 %
     CRC теста 970C7B0C
     CRC копии 970C7B0C
     Копирование... OK
Трек 14
     Имя файла D:\Floorfilla • Le Voyage\14 – My Melody.wav
     Длина предзазора  0:00:00.01
     Пиковый уровень 100.0 %
     Качество трека 100.0 %
     CRC теста 2B8D5387
     CRC копии 2B8D5387
     Копирование... OK
Трек 15
     Имя файла D:\Floorfilla • Le Voyage\15 – Osama Rave.wav
     Пиковый уровень 99.9 %
     Качество трека 100.0 %
     CRC теста 7C0FBB34
     CRC копии 7C0FBB34
     Копирование... OK
Трек 16
     Имя файла D:\Floorfilla • Le Voyage\16 – Floor-Fee-La.wav
     Пиковый уровень 99.9 %
     Качество трека 100.0 %
     CRC теста 8DC575B9
     CRC копии 8DC575B9
     Копирование... OK
Ошибок не произошло
Конец отчёта
Код:
[img]http://s55.radikal.ru/i148/0912/6e/cd6455cc429d.jpg[/img]
Cканы в комплекте
Правила, инструкции, FAQ!!!
Торрент  Добавлен [23 май 2019, 20:03] Скачать торрент Магнет ссылка
Скачать торрент
[ Размер 16.92 КБ / Просмотров 7 ]

Статус
Проверен 
 
Размер  390.94 МБ
Приватный: Нет (DHT включён)
.torrent скачан  0
Как залить торрент? | Как скачать Torrent? | Ошибка в торренте? Качайте магнет  


     Отправить личное сообщение
   
Страница 1 из 1
Показать сообщения за:  Поле сортировки  
Начать новую тему Ответить на тему


Сейчас этот форум просматривают: нет зарегистрированных пользователей и гости: 0


Вы не можете начинать темы
Вы не можете отвечать на сообщения
Вы не можете редактировать свои сообщения
Вы не можете удалять свои сообщения
Вы не можете добавлять вложения

Перейти:  
Ресурс не предоставляет электронные версии произведений, а занимается лишь коллекционированием и каталогизацией ссылок, присылаемых и публикуемых на форуме нашими читателями. Если вы являетесь правообладателем какого-либо представленного материала и не желаете чтобы ссылка на него находилась в нашем каталоге, свяжитесь с нами и мы незамедлительно удалим её. Файлы для обмена на трекере предоставлены пользователями сайта, и администрация не несёт ответственности за их содержание. Просьба не заливать файлы, защищенные авторскими правами, а также файлы нелегального содержания!
cron