Начать новую тему Ответить на тему
Статистика раздачи
Размер: 517.17 МБ | Добавлен: 23 май 2019, 20:02 | Скачали: 0
Сидеров: 0  [0 байт/сек]    Личеров: 0  [0 байт/сек]
Пред. тема | След. тема 

Автор
Сообщение

СообщениеДобавлено: 23 май 2019, 20:02 

Ответить с цитатой 

No Siesta,It's Fiesta!
Жанр: Euro House,Eurodance,Latino
Страна-производитель диска: Holland
Год издания: 1998
Издатель (лейбл): ABCD
Номер по каталогу: 30131-2
Аудиокодек: FLAC (*.flac)
Тип рипа: tracks+.cue
Битрейт аудио: lossless
Продолжительность: 01:15:18
Источник (релизер): Собственный рип
Наличие сканов в содержимом раздачи: да
Треклист :
01 Sash! - La Primavera 03:35
02 Limbo Leaders - Follow The LEader 03:22
03 Dario C - Sunchyme 03:56
04 Carillo - Samba De Janeiro 03:26
05 Warp 9 - Whammer Slammer 02:52
06 Vengaboys - Parada De Tettas 04:06
07 Klatsch! - Oh Boy 03:52
08 Arrow - Hot Hot Hot (Remix) 04:15
09 The Goodmen - Give It Up 03:29
10 Galapaos - Tic Tic Tac 03:29
11 TNN - La Cucamarcha 03:55
12 2 In A Room - Carnival 04:34
13 Mighty Dub Kats - Magic Carpet Ride 03:47
14 Energy 52 - Cafe Del Mar 03:52
15 Trust - Vamos A Pegar Los Manos 03:37
16 Los Del Mar - Macarena 03:50
17 Pizzamen - Sex On The Street 03:49
18 Cisko Brothers - Guaglione (House Edit) 04:03
19 Vengaboys - To Brazil 03:09
20 Jovanotti - L'Ombelico Del Mondo 04:20
Код:
Exact Audio Copy V1.1 from 23. June 2015
Отчёт EAC об извлечении, выполненном 29. июня 2016, 18:56
Various Artists / No Siesta, It's Fiesta
Дисковод: PLEXTOR BD-R  PX-B950SA   Adapter: 1  ID: 0
Режим чтения                 : Достоверность
Использование точного потока : Да
Отключение кэша аудио        : Да
Использование указателей C2  : Нет
Коррекция смещения при чтении                     : 6
Способность читать области Lead-in и Lead-out     : Нет
Заполнение пропущенных сэмплов тишиной            : Да
Удаление блоков с тишиной в начале и конце        : Нет
При вычислениях CRC использовались нулевые сэмплы : Да
Интерфейс                                         : Встроенный Win32-интерфейс для Win NT/2000
Обработка зазоров                                 : Добавлено к предыдущему треку
Выходной формат          : Пользовательский кодировщик
Выбранный битрейт        : 1024 kBit/s
Качество                 : Высокий
Добавление ID3-тега      : Нет
Утилита сжатия           : N:\ПРОГРАММЫ\Exact Audio Copy\FLAC\FLAC.EXE
Дополнительные параметры : -6 -V -T "ARTIST=%artist%" -T "TITLE=%title%" -T "ALBUM=%albumtitle%" -T "DATE=%year%" -T "TRACKNUMBER=%tracknr%" -T "GENRE=%genre%" -T "COMMENT=%comment%" -T "BAND=%albuminterpret%" -T "ALBUMARTIST=%albuminterpret%" -T "COMPOSER=%composer%" %haslyrics%--tag-from-file=LYRICS="%lyricsfile%"%haslyrics% -T "DISCNUMBER=%cdnumber%" -T "TOTALDISCS=%totalcds%" -T "TOTALTRACKS=%numtracks%" %hascover%--picture="%coverfile%"%hascover% %source% -o %dest%
TOC извлечённого CD
     Трек |   Старт  | Длительность | Начальный сектор | Конечный сектор
    ---------------------------------------------------------------------
       1  |  0:00.00 |    3:34.58   |           0      |      16107
       2  |  3:34.58 |    3:22.16   |       16108      |      31273
       3  |  6:56.74 |    3:56.11   |       31274      |      48984
       4  | 10:53.10 |    3:25.69   |       48985      |      64428
       5  | 14:19.04 |    2:52.06   |       64429      |      77334
       6  | 17:11.10 |    4:05.58   |       77335      |      95767
       7  | 21:16.68 |    3:52.14   |       95768      |     113181
       8  | 25:09.07 |    4:14.60   |      113182      |     132291
       9  | 29:23.67 |    3:29.12   |      132292      |     147978
      10  | 32:53.04 |    3:29.21   |      147979      |     163674
      11  | 36:22.25 |    3:54.55   |      163675      |     181279
      12  | 40:17.05 |    4:33.59   |      181280      |     201813
      13  | 44:50.64 |    3:46.68   |      201814      |     218831
      14  | 48:37.57 |    3:51.45   |      218832      |     236201
      15  | 52:29.27 |    3:36.74   |      236202      |     252475
      16  | 56:06.26 |    3:50.22   |      252476      |     269747
      17  | 59:56.48 |    3:48.68   |      269748      |     286915
      18  | 63:45.41 |    4:03.27   |      286916      |     305167
      19  | 67:48.68 |    3:08.43   |      305168      |     319310
      20  | 70:57.36 |    4:20.13   |      319311      |     338823
Трек  1
     Имя файла N:\ТОРРЕНТЫ\No siesta it's Fiesta\01 Sash! - La Pimavera.wav
     Длина предзазора  0:00:02.00
     Пиковый уровень 100.0 %
     Скорость извлечения 3.7 X
     Качество трека 99.9 %
     CRC теста 0E061F6C
     CRC копии 0E061F6C
     Точное извлечение (достоверность 1)  [18A3D8D5]  (AR v2)
     Копирование... OK
Трек  2
     Имя файла N:\ТОРРЕНТЫ\No siesta it's Fiesta\02 Limbo Leaders - Follow The Leader.wav
     Длина предзазора  0:00:02.00
     Пиковый уровень 100.0 %
     Скорость извлечения 4.9 X
     Качество трека 100.0 %
     CRC теста C7FDFC9F
     CRC копии C7FDFC9F
     Точное извлечение (достоверность 1)  [4FC0874A]  (AR v2)
     Копирование... OK
Трек  3
     Имя файла N:\ТОРРЕНТЫ\No siesta it's Fiesta\03 Dario C - Sunchyme.wav
     Длина предзазора  0:00:02.00
     Пиковый уровень 100.0 %
     Скорость извлечения 5.4 X
     Качество трека 100.0 %
     CRC теста FAAEFC2D
     CRC копии FAAEFC2D
     Точное извлечение (достоверность 1)  [9E66BEE7]  (AR v2)
     Копирование... OK
Трек  4
     Имя файла N:\ТОРРЕНТЫ\No siesta it's Fiesta\04 Carillo - Samba De Janeiro.wav
     Длина предзазора  0:00:02.01
     Пиковый уровень 94.4 %
     Скорость извлечения 5.7 X
     Качество трека 100.0 %
     CRC теста ACCDB844
     CRC копии ACCDB844
     Точное извлечение (достоверность 1)  [C0AD421D]  (AR v2)
     Копирование... OK
Трек  5
     Имя файла N:\ТОРРЕНТЫ\No siesta it's Fiesta\05 Warp 9 - Whammer Slammer.wav
     Длина предзазора  0:00:02.00
     Пиковый уровень 100.0 %
     Скорость извлечения 4.5 X
     Качество трека 99.9 %
     CRC теста F39AEB70
     CRC копии F39AEB70
     Точное извлечение (достоверность 1)  [9DA74692]  (AR v2)
     Копирование... OK
Трек  6
     Имя файла N:\ТОРРЕНТЫ\No siesta it's Fiesta\06 Vengaboys - Parada De Tettas.wav
     Длина предзазора  0:00:02.00
     Пиковый уровень 92.7 %
     Скорость извлечения 6.4 X
     Качество трека 100.0 %
     CRC теста 8E594AE0
     CRC копии 8E594AE0
     Точное извлечение (достоверность 1)  [5F040375]  (AR v2)
     Копирование... OK
Трек  7
     Имя файла N:\ТОРРЕНТЫ\No siesta it's Fiesta\07 Klatsch - Oh Boy.wav
     Длина предзазора  0:00:01.74
     Пиковый уровень 100.0 %
     Скорость извлечения 6.6 X
     Качество трека 100.0 %
     CRC теста DDDBD143
     CRC копии DDDBD143
     Точное извлечение (достоверность 1)  [8B62CB47]  (AR v2)
     Копирование... OK
Трек  8
     Имя файла N:\ТОРРЕНТЫ\No siesta it's Fiesta\08 Arrow - Hot Hot Hot (Remix).wav
     Длина предзазора  0:00:02.00
     Пиковый уровень 100.0 %
     Скорость извлечения 7.0 X
     Качество трека 100.0 %
     CRC теста 4CC5D690
     CRC копии 4CC5D690
     Точное извлечение (достоверность 1)  [0B03CA6D]  (AR v2)
     Копирование... OK
Трек  9
     Имя файла N:\ТОРРЕНТЫ\No siesta it's Fiesta\09 The Goodmen - Give It Up.wav
     Длина предзазора  0:00:02.01
     Пиковый уровень 100.0 %
     Скорость извлечения 5.7 X
     Качество трека 99.9 %
     CRC теста 2355FDE5
     CRC копии 2355FDE5
     Точное извлечение (достоверность 1)  [38EAA7D6]  (AR v2)
     Копирование... OK
Трек 10
     Имя файла N:\ТОРРЕНТЫ\No siesta it's Fiesta\10 Galapaos - Tic Tic Tac.wav
     Длина предзазора  0:00:02.01
     Пиковый уровень 93.2 %
     Скорость извлечения 7.1 X
     Качество трека 100.0 %
     CRC теста 52B22DE1
     CRC копии 52B22DE1
     Точное извлечение (достоверность 1)  [E894E236]  (AR v2)
     Копирование... OK
Трек 11
     Имя файла N:\ТОРРЕНТЫ\No siesta it's Fiesta\11 TNN - La Cucamarcha.wav
     Длина предзазора  0:00:02.00
     Пиковый уровень 100.0 %
     Скорость извлечения 6.3 X
     Качество трека 99.9 %
     CRC теста BB32D4A0
     CRC копии BB32D4A0
     Точное извлечение (достоверность 1)  [5B6B07D1]  (AR v2)
     Копирование... OK
Трек 12
     Имя файла N:\ТОРРЕНТЫ\No siesta it's Fiesta\12 2 In A Room - Carnival.wav
     Длина предзазора  0:00:02.00
     Пиковый уровень 100.0 %
     Скорость извлечения 8.0 X
     Качество трека 100.0 %
     CRC теста 344CCE20
     CRC копии 344CCE20
     Точное извлечение (достоверность 1)  [5162F3D9]  (AR v2)
     Копирование... OK
Трек 13
     Имя файла N:\ТОРРЕНТЫ\No siesta it's Fiesta\13 Mighty Dub Katz - Magic Carpet Ride.wav
     Длина предзазора  0:00:02.07
     Пиковый уровень 100.0 %
     Скорость извлечения 8.0 X
     Качество трека 100.0 %
     CRC теста 799613EB
     CRC копии 799613EB
     Точное извлечение (достоверность 1)  [721E5EAB]  (AR v2)
     Копирование... OK
Трек 14
     Имя файла N:\ТОРРЕНТЫ\No siesta it's Fiesta\14 Energy 52 - Cafe Del Mar.wav
     Длина предзазора  0:00:02.01
     Пиковый уровень 100.0 %
     Скорость извлечения 8.3 X
     Качество трека 100.0 %
     CRC теста D03FEF6C
     CRC копии D03FEF6C
     Точное извлечение (достоверность 1)  [E5CAD244]  (AR v2)
     Копирование... OK
Трек 15
     Имя файла N:\ТОРРЕНТЫ\No siesta it's Fiesta\15 Trust - Vamos A Pegar Los Manos.wav
     Длина предзазора  0:00:02.00
     Пиковый уровень 100.0 %
     Скорость извлечения 8.5 X
     Качество трека 100.0 %
     CRC теста 0EB8E19B
     CRC копии 0EB8E19B
     Точное извлечение (достоверность 1)  [FBE0D8D6]  (AR v2)
     Копирование... OK
Трек 16
     Имя файла N:\ТОРРЕНТЫ\No siesta it's Fiesta\16 Los Del Mar - Macarena.wav
     Длина предзазора  0:00:02.01
     Пиковый уровень 100.0 %
     Скорость извлечения 8.7 X
     Качество трека 100.0 %
     CRC теста 6B6E3425
     CRC копии 6B6E3425
     Точное извлечение (достоверность 1)  [D5B7690E]  (AR v2)
     Копирование... OK
Трек 17
     Имя файла N:\ТОРРЕНТЫ\No siesta it's Fiesta\17 Pizzamen - Sex On The Street.wav
     Длина предзазора  0:00:01.74
     Пиковый уровень 100.0 %
     Скорость извлечения 8.8 X
     Качество трека 100.0 %
     CRC теста FBB66F29
     CRC копии FBB66F29
     Точное извлечение (достоверность 1)  [A441BBFB]  (AR v2)
     Копирование... OK
Трек 18
     Имя файла N:\ТОРРЕНТЫ\No siesta it's Fiesta\18 Cisko Brothers - Guaglione (House Edit).wav
     Длина предзазора  0:00:02.01
     Пиковый уровень 100.0 %
     Скорость извлечения 7.5 X
     Качество трека 99.9 %
     CRC теста 917EEFDD
     CRC копии 917EEFDD
     Точное извлечение (достоверность 1)  [AAE5300A]  (AR v2)
     Копирование... OK
Трек 19
     Имя файла N:\ТОРРЕНТЫ\No siesta it's Fiesta\19 Vengaboys - To Brazil.wav
     Длина предзазора  0:00:02.01
     Пиковый уровень 100.0 %
     Скорость извлечения 7.0 X
     Качество трека 99.9 %
     CRC теста 7A85B6BC
     CRC копии 7A85B6BC
     Точное извлечение (достоверность 1)  [1CCC7EA8]  (AR v2)
     Копирование... OK
Трек 20
     Имя файла N:\ТОРРЕНТЫ\No siesta it's Fiesta\20 Jovanotti - L'ombelico Del Mondo.wav
     Длина предзазора  0:00:02.00
     Пиковый уровень 100.0 %
     Скорость извлечения 9.4 X
     Качество трека 100.0 %
     CRC теста 4240FFD1
     CRC копии 4240FFD1
     Точное извлечение (достоверность 1)  [0DCA9768]  (AR v2)
     Копирование... OK
Все треки извлечены точно
Ошибок не произошло
Конец отчёта
---- CUETools DB Plugin V2.1.6
[CTDB TOCID: uVCqFbzogXxt3FWbcIsEHDaPdOg-] found
Submit result: already submitted
Track | CTDB Status
  1   | (1/1) Accurately ripped
  2   | (1/1) Accurately ripped
  3   | (1/1) Accurately ripped
  4   | (1/1) Accurately ripped
  5   | (1/1) Accurately ripped
  6   | (1/1) Accurately ripped
  7   | (1/1) Accurately ripped
  8   | (1/1) Accurately ripped
  9   | (1/1) Accurately ripped
 10   | (1/1) Accurately ripped
 11   | (1/1) Accurately ripped
 12   | (1/1) Accurately ripped
 13   | (1/1) Accurately ripped
 14   | (1/1) Accurately ripped
 15   | (1/1) Accurately ripped
 16   | (1/1) Accurately ripped
 17   | (1/1) Accurately ripped
 18   | (1/1) Accurately ripped
 19   | (1/1) Accurately ripped
 20   | (1/1) Accurately ripped
==== Контрольная сумма отчёта 2CE1A4DEBEE0D9E29E390CD1B316B3AE4FDF2A837C2D9C0D8D392900AA5DEC1D ====
REM GENRE Dance
REM DATE 1998
REM DISCID 3311A514
REM COMMENT "ExactAudioCopy v1.1"
PERFORMER "Various Artists"
TITLE "No Siesta, It's Fiesta"
FILE "01 Sash! - La Pimavera.wav" WAVE
TRACK 01 AUDIO
TITLE "La Pimavera"
PERFORMER "Sash!"
ISRC BEAA19803803
INDEX 01 00:00:00
TRACK 02 AUDIO
TITLE "Follow The Leader"
PERFORMER "Limbo Leaders"
INDEX 00 03:32:58
FILE "02 Limbo Leaders - Follow The Leader.wav" WAVE
INDEX 01 00:00:00
TRACK 03 AUDIO
TITLE "Sunchyme"
PERFORMER "Dario C"
INDEX 00 03:20:16
FILE "03 Dario C - Sunchyme.wav" WAVE
INDEX 01 00:00:00
TRACK 04 AUDIO
TITLE "Samba De Janeiro"
PERFORMER "Carillo"
INDEX 00 03:54:10
FILE "04 Carillo - Samba De Janeiro.wav" WAVE
INDEX 01 00:00:00
TRACK 05 AUDIO
TITLE "Whammer Slammer"
PERFORMER "Warp 9"
INDEX 00 03:23:69
FILE "05 Warp 9 - Whammer Slammer.wav" WAVE
INDEX 01 00:00:00
TRACK 06 AUDIO
TITLE "Parada De Tettas"
PERFORMER "Vengaboys"
INDEX 00 02:50:06
FILE "06 Vengaboys - Parada De Tettas.wav" WAVE
INDEX 01 00:00:00
TRACK 07 AUDIO
TITLE "Oh Boy"
PERFORMER "Klatsch"
INDEX 00 04:03:59
FILE "07 Klatsch - Oh Boy.wav" WAVE
INDEX 01 00:00:00
TRACK 08 AUDIO
TITLE "Hot Hot Hot (Remix)"
PERFORMER "Arrow"
INDEX 00 03:50:14
FILE "08 Arrow - Hot Hot Hot (Remix).wav" WAVE
INDEX 01 00:00:00
TRACK 09 AUDIO
TITLE "Give It Up"
PERFORMER "The Goodmen"
INDEX 00 04:12:59
FILE "09 The Goodmen - Give It Up.wav" WAVE
INDEX 01 00:00:00
TRACK 10 AUDIO
TITLE "Tic Tic Tac"
PERFORMER "Galapaos"
INDEX 00 03:27:11
FILE "10 Galapaos - Tic Tic Tac.wav" WAVE
INDEX 01 00:00:00
TRACK 11 AUDIO
TITLE "La Cucamarcha"
PERFORMER "TNN"
INDEX 00 03:27:21
FILE "11 TNN - La Cucamarcha.wav" WAVE
INDEX 01 00:00:00
TRACK 12 AUDIO
TITLE "Carnival"
PERFORMER "2 In A Room"
INDEX 00 03:52:55
FILE "12 2 In A Room - Carnival.wav" WAVE
INDEX 01 00:00:00
TRACK 13 AUDIO
TITLE "Magic Carpet Ride"
PERFORMER "Mighty Dub Katz"
INDEX 00 04:31:52
FILE "13 Mighty Dub Katz - Magic Carpet Ride.wav" WAVE
INDEX 01 00:00:00
TRACK 14 AUDIO
TITLE "Cafe Del Mar"
PERFORMER "Energy 52"
INDEX 00 03:44:67
FILE "14 Energy 52 - Cafe Del Mar.wav" WAVE
INDEX 01 00:00:00
TRACK 15 AUDIO
TITLE "Vamos A Pegar Los Manos"
PERFORMER "Trust"
ISRC NLB849800093
INDEX 00 03:49:45
FILE "15 Trust - Vamos A Pegar Los Manos.wav" WAVE
INDEX 01 00:00:00
TRACK 16 AUDIO
TITLE "Macarena"
PERFORMER "Los Del Mar"
INDEX 00 03:34:73
FILE "16 Los Del Mar - Macarena.wav" WAVE
INDEX 01 00:00:00
TRACK 17 AUDIO
TITLE "Sex On The Street"
PERFORMER "Pizzamen"
INDEX 00 03:48:23
FILE "17 Pizzamen - Sex On The Street.wav" WAVE
INDEX 01 00:00:00
TRACK 18 AUDIO
TITLE "Guaglione (House Edit)"
PERFORMER "Cisko Brothers"
INDEX 00 03:46:67
FILE "18 Cisko Brothers - Guaglione (House Edit).wav" WAVE
INDEX 01 00:00:00
TRACK 19 AUDIO
TITLE "To Brazil"
PERFORMER "Vengaboys"
INDEX 00 04:01:26
FILE "19 Vengaboys - To Brazil.wav" WAVE
INDEX 01 00:00:00
TRACK 20 AUDIO
TITLE "L'ombelico Del Mondo"
PERFORMER "Jovanotti"
INDEX 00 03:06:43
FILE "20 Jovanotti - L'ombelico Del Mondo.wav" WAVE
INDEX 01 00:00:00
Мои Italo-Disco-House (lossless) , Automatic D.J. Service Мои Eurodance - Euro-House (lossless)
Правила, инструкции, FAQ!!!
Торрент  Добавлен [23 май 2019, 20:02] Скачать торрент Магнет ссылка
Скачать торрент
[ Размер 12.38 КБ / Просмотров 3 ]

Статус
Проверен 
 
Размер  517.17 МБ
Приватный: Нет (DHT включён)
.torrent скачан  0
Как залить торрент? | Как скачать Torrent? | Ошибка в торренте? Качайте магнет  


     Отправить личное сообщение
   
Страница 1 из 1
Показать сообщения за:  Поле сортировки  
Начать новую тему Ответить на тему


Сейчас этот форум просматривают: нет зарегистрированных пользователей и гости: 0


Вы не можете начинать темы
Вы не можете отвечать на сообщения
Вы не можете редактировать свои сообщения
Вы не можете удалять свои сообщения
Вы не можете добавлять вложения

Перейти:  
Ресурс не предоставляет электронные версии произведений, а занимается лишь коллекционированием и каталогизацией ссылок, присылаемых и публикуемых на форуме нашими читателями. Если вы являетесь правообладателем какого-либо представленного материала и не желаете чтобы ссылка на него находилась в нашем каталоге, свяжитесь с нами и мы незамедлительно удалим её. Файлы для обмена на трекере предоставлены пользователями сайта, и администрация не несёт ответственности за их содержание. Просьба не заливать файлы, защищенные авторскими правами, а также файлы нелегального содержания!
cron