Начать новую тему Ответить на тему
Статистика раздачи
Размер: 422.96 МБ | Добавлен: 23 май 2019, 20:07 | Скачали: 0
Сидеров: 0  [0 байт/сек]    Личеров: 0  [0 байт/сек]
Пред. тема | След. тема 

Автор
Сообщение

СообщениеДобавлено: 23 май 2019, 20:07 

Ответить с цитатой 

Mr.Happyman - Retro
Жанр: Euro-House,Eurodance,Pop
Лейбл: Top Ten/Moonwalk
Каталог: TOP CD 1177
Страна/Сделано: Estonia
Год издания: 2006
Тип рипа: Image+.Cue
Аудио кодек: FLAC [*.flac]
Метод сжатия аудио: lossless
Продолжительность: 52:24
Источник (релизёр): Рипы с собственных CD (RoxMan)
Наличие сканов: Да
Доп. информация: порядок треков на диске отличается
от порядка, приведённого на тыльной обложке. Касается
треков 7,8 и 9. Так уж он сделан. Приведённый треклист
композиций взят с диска.
Треклист:
01. Retro (3:26)
02. Las Mina Proovin Siis Ka (3:42)
03. Ipanema (2:55)
04. Kruiisime (4:09)
05. Klubimeka (3:07)
06. Lõvisüda (3:45)
07. Dancehall (Feat. Shamaan) (3:46)
08. Skandinaavia Beib (3:28)
09. Lendaval Vaibal (3:28)
10. Pilvede Peal (3:50)
11. Öös On Saladusi (3:08)
12. Suveparadiis (4:30)
13. Las Mina Proovin Siis Ka (Originaal) (4:55)
14. Lõvisüda (Originaal) (4:16)
Код:
Exact Audio Copy V1.0 beta 3 from 29. August 2011
EAC extraction logfile from 10. August 2013, 12:49
Mr.Happyman / Retro
Used drive  : ASUS    DRW-20B1ST   Adapter: 2  ID: 0
Read mode               : Secure
Utilize accurate stream : Yes
Defeat audio cache      : Yes
Make use of C2 pointers : No
Read offset correction                      : 6
Overread into Lead-In and Lead-Out          : No
Fill up missing offset samples with silence : Yes
Delete leading and trailing silent blocks   : No
Null samples used in CRC calculations       : Yes
Used interface                              : Native Win32 interface for Win NT & 2000
Used output format              : User Defined Encoder
Selected bitrate                : 1024 kBit/s
Quality                         : High
Add ID3 tag                     : No
Command line compressor         : C:\Program Files\Exact Audio Copy\Flac\flac.exe
Additional command line options : -V -8 -T "Date=%year%" -T "Genre=%genre%" -T "Comment=Rip made RoxMan, Enjoy!" %source%
TOC of the extracted CD
     Track |   Start  |  Length  | Start sector | End sector
    ---------------------------------------------------------
        1  |  0:00.00 |  3:25.73 |         0    |    15447
        2  |  3:25.73 |  3:42.00 |     15448    |    32097
        3  |  7:07.73 |  2:54.66 |     32098    |    45213
        4  | 10:02.64 |  4:09.07 |     45214    |    63895
        5  | 14:11.71 |  3:07.00 |     63896    |    77920
        6  | 17:18.71 |  3:44.73 |     77921    |    94793
        7  | 21:03.69 |  3:46.02 |     94794    |   111745
        8  | 24:49.71 |  3:27.74 |    111746    |   127344
        9  | 28:17.70 |  3:27.73 |    127345    |   142942
       10  | 31:45.68 |  3:50.00 |    142943    |   160192
       11  | 35:35.68 |  3:08.00 |    160193    |   174292
       12  | 38:43.68 |  4:29.73 |    174293    |   194540
       13  | 43:13.66 |  4:55.00 |    194541    |   216665
       14  | 48:08.66 |  4:15.74 |    216666    |   235864
Range status and errors
Selected range
     Filename D:\Mr.Happyman - Retro.wav
     Peak level 95.6 %
     Extraction speed 8.6 X
     Range quality 100.0 %
     Test CRC 080A3C05
     Copy CRC 080A3C05
     Copy OK
No errors occurred
AccurateRip summary
Track  1  accurately ripped (confidence 1)  [6D817BD4]  (AR v1)
Track  2  accurately ripped (confidence 1)  [604F4FEB]  (AR v1)
Track  3  accurately ripped (confidence 1)  [A322E9EA]  (AR v1)
Track  4  accurately ripped (confidence 1)  [2A6F0105]  (AR v1)
Track  5  accurately ripped (confidence 1)  [4898FCAA]  (AR v1)
Track  6  accurately ripped (confidence 1)  [A15F229C]  (AR v1)
Track  7  accurately ripped (confidence 1)  [2A3ED05C]  (AR v1)
Track  8  accurately ripped (confidence 1)  [767201B7]  (AR v1)
Track  9  accurately ripped (confidence 1)  [F0AEE90D]  (AR v1)
Track 10  accurately ripped (confidence 1)  [96F07D79]  (AR v1)
Track 11  accurately ripped (confidence 1)  [7C359879]  (AR v1)
Track 12  accurately ripped (confidence 1)  [53090678]  (AR v1)
Track 13  accurately ripped (confidence 1)  [1A8E8ADC]  (AR v1)
Track 14  accurately ripped (confidence 1)  [6706B093]  (AR v1)
All tracks accurately ripped
End of status report
==== Log checksum FC4A2FE2BDF15406CD4A0181B7A2D5450EA5DAFC74219F7718942EBD992186E9 ====


PS: раздача с 18:00 до 23:30 (время московское).
Поддерживая раздачу, вы даёте возможность скачать её другим !
Правила, инструкции, FAQ!!!
Торрент  Добавлен [23 май 2019, 20:07] Скачать торрент Магнет ссылка
Скачать торрент
[ Размер 17.52 КБ / Просмотров 7 ]

Статус
Проверен 
 
Размер  422.96 МБ
Приватный: Нет (DHT включён)
.torrent скачан  0
Как залить торрент? | Как скачать Torrent? | Ошибка в торренте? Качайте магнет  


     Отправить личное сообщение
   
Страница 1 из 1
Показать сообщения за:  Поле сортировки  
Начать новую тему Ответить на тему


Сейчас этот форум просматривают: нет зарегистрированных пользователей и гости: 0


Вы не можете начинать темы
Вы не можете отвечать на сообщения
Вы не можете редактировать свои сообщения
Вы не можете удалять свои сообщения
Вы не можете добавлять вложения

Перейти:  
Ресурс не предоставляет электронные версии произведений, а занимается лишь коллекционированием и каталогизацией ссылок, присылаемых и публикуемых на форуме нашими читателями. Если вы являетесь правообладателем какого-либо представленного материала и не желаете чтобы ссылка на него находилась в нашем каталоге, свяжитесь с нами и мы незамедлительно удалим её. Файлы для обмена на трекере предоставлены пользователями сайта, и администрация не несёт ответственности за их содержание. Просьба не заливать файлы, защищенные авторскими правами, а также файлы нелегального содержания!
cron