Начать новую тему Ответить на тему
Статистика раздачи
Размер: 343.91 МБ | Добавлен: 23 май 2019, 20:05 | Скачали: 0
Сидеров: 0  [0 байт/сек]    Личеров: 0  [0 байт/сек]
Пред. тема | След. тема 

Автор
Сообщение

СообщениеДобавлено: 23 май 2019, 20:05 

Ответить с цитатой 

Saule / Aizved Mani Uz Munamegi
Жанр: (Euro)House, (Euro)Folk, Happy Hardcore
Носитель: CD
Страна-производитель диска: Latvia
Год издания: 1995
Издатель (лейбл): Microphone Records
Номер по каталогу: MRCD 042
Аудиокодек: FLAC (*.flac)
Тип рипа: image+.cue
Битрейт аудио: lossless
Продолжительность: 47:13
Источник (релизер): Рип с диска из собственной коллекции.
Наличие сканов в содержимом раздачи: нет
Треклист:
1 Untitled
2 Rikšiem Bērīti (Munameģa Mix)
3 Āvu, Āvu Baltas Kājas
4 Čuči, Manu Drostaliņ
5 Bēdu Manu, Lielu Bēdu (Es Par Bēdu Nebēdāj')
6 Tur Es Dzēru, Tur Man Tika ("Space" Krodziņš)
7 S.I.A. Auzas
8 Pīci Krekli, Jeb Vācīts' Latgalē
9 Mīklas (Beztolkmix)
10 Ko Mēs Meitas Darīsim, Puiši Solas ...
11 Rīgā Dimd
12 Ja Es Būtu Tūtaliņš, Tāgadiņš
14 Filmas Beigas
Код:
Exact Audio Copy V1.0 beta 3 from 29. August 2011
EAC extraction logfile from 1. February 2014, 17:06
Saule / Aizved mani uz Munamegi
Used drive  : PIONEER DVD-RW  DVR-218L   Adapter: 3  ID: 0
Read mode               : Secure
Utilize accurate stream : Yes
Defeat audio cache      : Yes
Make use of C2 pointers : No
Read offset correction                      : 6
Overread into Lead-In and Lead-Out          : No
Fill up missing offset samples with silence : Yes
Delete leading and trailing silent blocks   : No
Null samples used in CRC calculations       : Yes
Used interface                              : Installed external ASPI interface
Used output format              : User Defined Encoder
Selected bitrate                : 128 kBit/s
Quality                         : High
Add ID3 tag                     : No
Command line compressor         : C:\Program Files (x86)\Exact Audio Copy\Flac\flac.exe
Additional command line options : -V -8 %source%
TOC of the extracted CD
     Track |   Start  |  Length  | Start sector | End sector
    ---------------------------------------------------------
        1  |  0:00.00 |  2:11.12 |         0    |     9836
        2  |  2:11.12 |  3:24.20 |      9837    |    25156
        3  |  5:35.32 |  3:57.28 |     25157    |    42959
        4  |  9:32.60 |  3:23.02 |     42960    |    58186
        5  | 12:55.62 |  3:44.28 |     58187    |    75014
        6  | 16:40.15 |  4:11.40 |     75015    |    93879
        7  | 20:51.55 |  3:19.45 |     93880    |   108849
        8  | 24:11.25 |  4:03.57 |    108850    |   127131
        9  | 28:15.07 |  3:48.40 |    127132    |   144271
       10  | 32:03.47 |  3:40.23 |    144272    |   160794
       11  | 35:43.70 |  3:43.20 |    160795    |   177539
       12  | 39:27.15 |  3:24.37 |    177540    |   192876
       13  | 42:51.52 |  4:21.58 |    192877    |   212509
Range status and errors
Selected range
     Filename D:\Новая папка\Saule - Aizved mani uz Munamegi.wav
     Peak level 98.0 %
     Extraction speed 1.7 X
     Range quality 100.0 %
     Test CRC 0D262529
     Copy CRC 0D262529
     Copy OK
No errors occurred
AccurateRip summary
Track  1  not present in database
Track  2  not present in database
Track  3  not present in database
Track  4  not present in database
Track  5  not present in database
Track  6  not present in database
Track  7  not present in database
Track  8  not present in database
Track  9  not present in database
Track 10  not present in database
Track 11  not present in database
Track 12  not present in database
Track 13  not present in database
None of the tracks are present in the AccurateRip database
End of status report
==== Log checksum 23EB474EB3BA8CFBBEEE9367EE89A79FACFD8A7FC0791726E9096C2CFE37A730 ====
Discogs
Довольно редкий релиз от создателей проекта "100 Debija". Стилистично эдакий "Иван Купала" по латвийски. Интересный факт: в записи активно использовался голос советского и латвийского актёра театра и кино Улдис Думписа (Uldis Dumpis).
Правила, инструкции, FAQ!!!
Торрент  Добавлен [23 май 2019, 20:05] Скачать торрент Магнет ссылка
Скачать торрент
[ Размер 14.07 КБ / Просмотров 8 ]

Статус
Проверен 
 
Размер  343.91 МБ
Приватный: Нет (DHT включён)
.torrent скачан  0
Как залить торрент? | Как скачать Torrent? | Ошибка в торренте? Качайте магнет  


     Отправить личное сообщение
   
Страница 1 из 1
Показать сообщения за:  Поле сортировки  
Начать новую тему Ответить на тему


Сейчас этот форум просматривают: нет зарегистрированных пользователей и гости: 0


Вы не можете начинать темы
Вы не можете отвечать на сообщения
Вы не можете редактировать свои сообщения
Вы не можете удалять свои сообщения
Вы не можете добавлять вложения

Перейти:  
Ресурс не предоставляет электронные версии произведений, а занимается лишь коллекционированием и каталогизацией ссылок, присылаемых и публикуемых на форуме нашими читателями. Если вы являетесь правообладателем какого-либо представленного материала и не желаете чтобы ссылка на него находилась в нашем каталоге, свяжитесь с нами и мы незамедлительно удалим её. Файлы для обмена на трекере предоставлены пользователями сайта, и администрация не несёт ответственности за их содержание. Просьба не заливать файлы, защищенные авторскими правами, а также файлы нелегального содержания!
cron