Начать новую тему Ответить на тему
Статистика раздачи
Размер: 278.8 МБ | Добавлен: 23 май 2019, 20:05 | Скачали: 0
Сидеров: 0  [0 байт/сек]    Личеров: 0  [0 байт/сек]
Пред. тема | След. тема 

Автор
Сообщение

СообщениеДобавлено: 23 май 2019, 20:05 

Ответить с цитатой 

Best Of Privilege Volume One


Жанр: Euro House/Electronic
Страна-производитель диска: Greece
Год издания: 2006
Издатель (лейбл): Planetworks
Номер по каталогу: PREW 2006-002
Аудиокодек: FLAC (*.flac)
Тип рипа: image+.cue
Битрейт аудио: lossless
Продолжительность: 38:24
Источник (релизер): CD
Наличие сканов в содержимом раздачи: нет
Треклист:
01. Just A Man / I'm Sorry (Radio Version) [0:03:49.48]
02. Yuyu / Mon Petit Garcon [0:03:37.56]
03. Soulmates / It's Not Unusual [0:03:14.74]
04. Nina / I'm So Excited [0:03:19.56]
05. King Of House / Can You Feel It (Radio Version) [0:03:26.04]
06. Disco Blu / Disco Blu (Radio Version) [0:03:20.29]
07. The Rythm Parteez ft. Sharon Williams / Life Is So Strong (Radio Version) [0:03:27.34]
08. Ken / Laura Non C'e [0:05:04.02]
09. Alegria / Mas Que Nada (Radio Version) [0:03:43.33]
10. Bad Crew / Don't Go [0:05:20.52]
Код:
Exact Audio Copy V0.99 prebeta 5 from 4. May 2009
EAC extraction logfile from 7. November 2012, 10:52
Various / Privilege - Best Of Vol. 01
Used drive  : SONY    DVD RW DRX-S70U   Adapter: 2  ID: 0
Read mode               : Secure
Utilize accurate stream : Yes
Defeat audio cache      : Yes
Make use of C2 pointers : No
Read offset correction                      : 48
Overread into Lead-In and Lead-Out          : No
Fill up missing offset samples with silence : Yes
Delete leading and trailing silent blocks   : No
Null samples used in CRC calculations       : Yes
Used interface                              : Native Win32 interface for Win NT & 2000
Used output format : Internal WAV Routines
Sample format      : 44.100 Hz; 16 Bit; Stereo
TOC of the extracted CD
     Track |   Start  |  Length  | Start sector | End sector
    ---------------------------------------------------------
        1  |  0:00.00 |  3:49.48 |         0    |    17222
        2  |  3:49.48 |  3:37.56 |     17223    |    33553
        3  |  7:27.29 |  3:14.74 |     33554    |    48177
        4  | 10:42.28 |  3:19.56 |     48178    |    63158
        5  | 14:02.09 |  3:26.04 |     63159    |    78612
        6  | 17:28.13 |  3:20.29 |     78613    |    93641
        7  | 20:48.42 |  3:27.34 |     93642    |   109200
        8  | 24:16.01 |  5:04.02 |    109201    |   132002
        9  | 29:20.03 |  3:43.33 |    132003    |   148760
       10  | 33:03.36 |  5:20.52 |    148761    |   172812
Range status and errors
Selected range
     Filename C:\Users\fancy\Desktop\Various - Privilege - Best Of Vol. 01.wav
     Peak level 100.0 %
     Range quality 99.9 %
     Test CRC 8A57C40C
     Copy CRC 8A57C40C
     Copy OK
No errors occurred
AccurateRip summary
Track  1  not present in database
Track  2  not present in database
Track  3  not present in database
Track  4  not present in database
Track  5  not present in database
Track  6  not present in database
Track  7  not present in database
Track  8  not present in database
Track  9  not present in database
Track 10  not present in database
None of the tracks are present in the AccurateRip database
End of status report
Код:
REM GENRE Club
REM DATE 2006
REM DISCID 7E09000A
REM COMMENT "ExactAudioCopy v0.99pb5"
PERFORMER "Various"
TITLE "Privilege - Best Of Vol. 01"
FILE "Various - Privilege - Best Of Vol. 01.flac" WAVE
  TRACK 01 AUDIO
    TITLE "I'm Sorry (Radio Version)"
    PERFORMER "Just A Man"
    FLAGS DCP
    INDEX 01 00:00:00
  TRACK 02 AUDIO
    TITLE "Mon Petit Garcon"
    PERFORMER "Yuyu"
    FLAGS DCP
    INDEX 01 03:49:48
  TRACK 03 AUDIO
    TITLE "It's Not Unusual"
    PERFORMER "Soulmates"
    FLAGS DCP
    INDEX 01 07:27:29
  TRACK 04 AUDIO
    TITLE "I'm So Excited"
    PERFORMER "Nina"
    FLAGS DCP
    INDEX 01 10:42:28
  TRACK 05 AUDIO
    TITLE "Can You Feel It (Radio Version)"
    PERFORMER "King Of House"
    FLAGS DCP
    INDEX 01 14:02:09
  TRACK 06 AUDIO
    TITLE "Disco Blu (Radio Version)"
    PERFORMER "Disco Blu"
    FLAGS DCP
    INDEX 01 17:28:13
  TRACK 07 AUDIO
    TITLE "Life Is So Strong (Radio Version)"
    PERFORMER "The Rythm Parteez ft. Sharon Williams"
    FLAGS DCP
    INDEX 01 20:48:42
  TRACK 08 AUDIO
    TITLE "Laura Non C'e"
    PERFORMER "Ken"
    FLAGS DCP
    INDEX 01 24:16:01
  TRACK 09 AUDIO
    TITLE "Mas Que Nada (Radio Version)"
    PERFORMER "Alegria"
    FLAGS DCP
    INDEX 01 29:20:03
  TRACK 10 AUDIO
    TITLE "Don't Go"
    PERFORMER "Bad Crew"
    FLAGS DCP
    INDEX 01 33:03:36
Код:
[img]http://i26.fastpic.ru/big/2012/1106/fe/55deb074acc2b0cbd757880decd59afe.jpg[/img]
Правила, инструкции, FAQ!!!
Торрент  Добавлен [23 май 2019, 20:05] Скачать торрент Магнет ссылка
Скачать торрент
[ Размер 11.6 КБ / Просмотров 4 ]

Статус
Проверен 
 
Размер  278.8 МБ
Приватный: Нет (DHT включён)
.torrent скачан  0
Как залить торрент? | Как скачать Torrent? | Ошибка в торренте? Качайте магнет  


     Отправить личное сообщение
   
Страница 1 из 1
Показать сообщения за:  Поле сортировки  
Начать новую тему Ответить на тему


Сейчас этот форум просматривают: нет зарегистрированных пользователей и гости: 0


Вы не можете начинать темы
Вы не можете отвечать на сообщения
Вы не можете редактировать свои сообщения
Вы не можете удалять свои сообщения
Вы не можете добавлять вложения

Перейти:  
Ресурс не предоставляет электронные версии произведений, а занимается лишь коллекционированием и каталогизацией ссылок, присылаемых и публикуемых на форуме нашими читателями. Если вы являетесь правообладателем какого-либо представленного материала и не желаете чтобы ссылка на него находилась в нашем каталоге, свяжитесь с нами и мы незамедлительно удалим её. Файлы для обмена на трекере предоставлены пользователями сайта, и администрация не несёт ответственности за их содержание. Просьба не заливать файлы, защищенные авторскими правами, а также файлы нелегального содержания!
cron