Начать новую тему Ответить на тему
Статистика раздачи
Размер: 612.7 МБ | Добавлен: 23 май 2019, 20:03 | Скачали: 0
Сидеров: 0  [0 байт/сек]    Личеров: 0  [0 байт/сек]
Пред. тема | След. тема 

Автор
Сообщение

СообщениеДобавлено: 23 май 2019, 20:03 

Ответить с цитатой 

DMA Fuse Energy
Жанр: Euro House
Страна-производитель диска: US
Год издания: 1998
Издатель (лейбл): 404 Music Group
Номер по каталогу: FOF-6101-2
Аудиокодек: FLAC (*.flac)
Тип рипа: image+.cue
Битрейт аудио: lossless
Продолжительность: 73:05
Источник (релизер): Собственный рип
Наличие сканов в содержимом раздачи: да
Треклист:
1 La Bouche – I Love To Love (Club Mix) 6:03
2 Osmania – Face Of A Stranger 3:56
3 Rhythm Reaction – You're Not Alone 4:01
4 Nathalie Page – This Is The Time 3:39
5 Mix Factory – Take Me Away (Paradise Mix) 5:02
6 M.Gi.M. – Be Good To Me 5:24
7 Disco Dude – Get Up (On The Dancefloor) 3:44
8 Taylor Dayne – Tell It To My Heart (Discotech Remix) 6:35
9 Collective Noyze With DJ Infinity – Theme From The X-Files (Euro Mix) 4:36
10 M:G – Sweet Honesty (Energy Box Edit) 3:54
11 Marina – Um-Lotty-Da 3:23
12 Hazell Dean – Searchin' '98 4:27
13 Michelle Leigh – When I Hear The Music 3:42
14 Indigo – I Don't Know What I'd Do (Hard 'n' Fast Mix) 5:01
15 Jackie 'O' – Whatever (Rippin' It Up Mix) 5:33
16 Format 2 – Moon Flower 4:05
Код:
Exact Audio Copy V1.0 beta 2 from 29. April 2011
Отчёт EAC об извлечении, выполненном 6. января 2013, 10:15
Various / DMA Fuse Energy
Дисковод: Optiarc DVD RW AD-7200S   Adapter: 2  ID: 0
Режим чтения                 : Достоверность
Использование точного потока : Да
Отключение кэша аудио        : Да
Использование указателей C2  : Нет
Коррекция смещения при чтении                     : 48
Способность читать области Lead-in и Lead-out     : Нет
Заполнение пропущенных сэмплов тишиной            : Да
Удаление блоков с тишиной в начале и конце        : Нет
При вычислениях CRC использовались нулевые сэмплы : Да
Интерфейс                                         : Встроенный Win32-интерфейс для Win NT/2000
Выходной формат          : Пользовательский кодировщик
Выбранный битрейт        : 1024 kBit/s
Качество                 : Высокий
Добавление ID3-тега      : Да
Утилита сжатия           : C:\Program Files\Exact Audio Copy\FLAC\FLAC.EXE
Дополнительные параметры : -6 -V -T "ARTIST=%artist%" -T "TITLE=%title%" -T "ALBUM=%albumtitle%" -T "DATE=%year%" -T "TRACKNUMBER=%tracknr%" -T "GENRE=%genre%" -T "COMMENT=%comment%" -T "BAND=%albuminterpret%" -T "COMPOSER=%composer%" %haslyrics%--tag-from-
TOC извлечённого CD
     Трек |   Старт  | Длительность | Начальный сектор | Конечный сектор
    ---------------------------------------------------------------------
       1  |  0:00.00 |    6:03.33   |           0      |      27257
       2  |  6:03.33 |    3:58.53   |       27258      |      45160
       3  | 10:02.11 |    4:01.58   |       45161      |      63293
       4  | 14:03.69 |    3:43.16   |       63294      |      80034
       5  | 17:47.10 |    4:50.28   |       80035      |     101812
       6  | 22:37.38 |    5:25.34   |      101813      |     126221
       7  | 28:02.72 |    3:45.01   |      126222      |     143097
       8  | 31:47.73 |    6:35.64   |      143098      |     172786
       9  | 38:23.62 |    4:37.11   |      172787      |     193572
      10  | 43:00.73 |    3:54.43   |      193573      |     211165
      11  | 46:55.41 |    3:22.35   |      211166      |     226350
      12  | 50:18.01 |    4:26.27   |      226351      |     246327
      13  | 54:44.28 |    3:42.37   |      246328      |     263014
      14  | 58:26.65 |    5:08.46   |      263015      |     286160
      15  | 63:35.36 |    5:46.53   |      286161      |     312163
      16  | 69:22.14 |    3:57.42   |      312164      |     329980
Характеристики диапазона извлечения и сообщения об ошибках
Выбранный диапазон
     Имя файла C:\Documents and Settings\vova\Рабочий стол\Various - DMA Fuse Energy.wav
     Пиковый уровень 100.0 %
     Скорость извлечения 2.8 X
     Качество диапазона 99.9 %
     CRC теста F6B0EECD
     CRC копии F6B0EECD
     Копирование... OK
Ошибок не произошло
AccurateRip: сводка
Трек  1  : извлечено точно (доверие 1)  [813B0A73]  (AR v1)
Трек  2  : извлечено точно (доверие 1)  [0D1AAAC3]  (AR v1)
Трек  3  : извлечено точно (доверие 1)  [2E86685B]  (AR v1)
Трек  4  : извлечено точно (доверие 1)  [4E80D465]  (AR v1)
Трек  5  : извлечено точно (доверие 1)  [894FB0B9]  (AR v1)
Трек  6  : извлечено точно (доверие 1)  [3470EBDD]  (AR v1)
Трек  7  : извлечено точно (доверие 1)  [4CB65A9E]  (AR v1)
Трек  8  : извлечено точно (доверие 1)  [CCF22E33]  (AR v1)
Трек  9  : извлечено точно (доверие 1)  [EBA680E5]  (AR v1)
Трек 10  : извлечено точно (доверие 1)  [6440A80C]  (AR v1)
Трек 11  : извлечено точно (доверие 1)  [EC1833F0]  (AR v1)
Трек 12  : извлечено точно (доверие 1)  [48AD5ADF]  (AR v1)
Трек 13  : извлечено точно (доверие 1)  [2942856E]  (AR v1)
Трек 14  : извлечено точно (доверие 1)  [79A482A3]  (AR v1)
Трек 15  : извлечено точно (доверие 1)  [BC4ED099]  (AR v1)
Трек 16  : извлечено точно (доверие 1)  [0819E604]  (AR v1)
Все треки извлечены точно
Конец отчёта
Доп. информация: http://www.discogs.com/Various-DMA-Dance-Music-Authority-Fuse-Energy/release/535355
Правила, инструкции, FAQ!!!
Торрент  Добавлен [23 май 2019, 20:03] Скачать торрент Магнет ссылка
Скачать торрент
[ Размер 1.89 КБ / Просмотров 2 ]

Статус
Проверен 
 
Размер  612.7 МБ
Приватный: Нет (DHT включён)
.torrent скачан  0
Как залить торрент? | Как скачать Torrent? | Ошибка в торренте? Качайте магнет  


     Отправить личное сообщение
   
Страница 1 из 1
Показать сообщения за:  Поле сортировки  
Начать новую тему Ответить на тему


Сейчас этот форум просматривают: нет зарегистрированных пользователей и гости: 0


Вы не можете начинать темы
Вы не можете отвечать на сообщения
Вы не можете редактировать свои сообщения
Вы не можете удалять свои сообщения
Вы не можете добавлять вложения

Перейти:  
Ресурс не предоставляет электронные версии произведений, а занимается лишь коллекционированием и каталогизацией ссылок, присылаемых и публикуемых на форуме нашими читателями. Если вы являетесь правообладателем какого-либо представленного материала и не желаете чтобы ссылка на него находилась в нашем каталоге, свяжитесь с нами и мы незамедлительно удалим её. Файлы для обмена на трекере предоставлены пользователями сайта, и администрация не несёт ответственности за их содержание. Просьба не заливать файлы, защищенные авторскими правами, а также файлы нелегального содержания!
cron