Начать новую тему Ответить на тему
Статистика раздачи
Размер: 384.83 МБ | Добавлен: 23 май 2019, 20:06 | Скачали: 0
Сидеров: 0  [0 байт/сек]    Личеров: 0  [0 байт/сек]
Пред. тема | След. тема 

Автор
Сообщение

СообщениеДобавлено: 23 май 2019, 20:06 

Ответить с цитатой 

Daddy DJ - Let Your Body Talk
Жанр: Euro House
Год выпуска диска: 2001
Производитель диска: France
Аудио кодек: FLAC
Тип рипа: tracks
Битрейт аудио: lossless
Продолжительность: 01:01:42
Источник: What.Cd

Треклист:
01. Daddy DJ (Chico & Tonio Radio Edit) 3:36
02. Where Are You? 3:28
03. Over You 3:34
04. Let Your Body Talk 4:31
05. Little Baby Girl 4:53
06. U See 4:47
07. In My Dreams 3:20
08. The Girl In Red (Live Mix) 5:01
09. Louder 5:16
10. Nightmares 5:24
11. Daddy DJ (J&B Trance Club Mix) 5:59
12. The Girl In Red (Chico & Tonio feat. J&B Club Mix) 5:39
13. Daddy DJ (Mr. Manu Underground Mix) 5:50
Код:
X Lossless Decoder version 20090320 (105.1)
XLD extraction logfile from 2009-08-15 04:31:23 +0200
Daddy Dj  / Let your body talk
Used drive : HL-DT-ST DVDRW  GA11N (revision KA15)
Use cdparanoia mode     : YES (CDParanoia III 10.2 engine)
Disable audio cache     : OK for the drive with cache less than 2750KB
Make use of C2 pointers : NO
Read offset correction  : 667
Max retry count         : 100
TOC of the extracted CD
     Track |   Start  |  Length  | Start sector | End sector
    ---------------------------------------------------------
        1  | 00:00:00 | 03:38:66 |         0    |    16415
        2  | 03:38:66 | 03:30:29 |     16416    |    32194
        3  | 07:09:20 | 03:35:39 |     32195    |    48358
        4  | 10:44:59 | 04:30:03 |     48359    |    68611
        5  | 15:14:62 | 04:56:46 |     68612    |    90857
        6  | 20:11:33 | 04:51:04 |     90858    |   112686
        7  | 25:02:37 | 03:22:73 |    112687    |   127909
        8  | 28:25:35 | 05:03:67 |    127910    |   150701
        9  | 33:29:27 | 05:19:47 |    150702    |   174673
       10  | 38:48:74 | 05:26:52 |    174674    |   199175
       11  | 44:15:51 | 06:01:48 |    199176    |   226298
       12  | 50:17:24 | 05:41:48 |    226299    |   251921
       13  | 55:58:72 | 05:50:14 |    251922    |   278185
All Tracks
    Album gain             : -7.58 dB
    Peak                   : 1.000000
Track 01
    Filename : /Users/maxime/Desktop/01 - Daddy DJ.flac
               /Users/maxime/Desktop/01 - Daddy DJ.mp3
    Track gain             : -7.25 dB
    Peak                   : 0.999969
    CRC32 hash (test run)  : D32A1520
    CRC32 hash             : D32A1520
    CRC32 hash (skip zero) : B7AF3259
    AccurateRip signature  : F2EB75F9
        ->Accurately ripped! (confidence 1)
    Statistics
        Read error                           : 0
        Skipped (treated as error)           : 0
        Edge jitter error (maybe fixed)      : 0
        Atom jitter error (maybe fixed)      : 0
        Drift error (maybe fixed)            : 0
        Dropped bytes error (maybe fixed)    : 0
        Duplicated bytes error (maybe fixed) : 0
        Inconsistency in error sectors       : 0
Track 02
    Filename : /Users/maxime/Desktop/02 - Where are you ?.flac
               /Users/maxime/Desktop/02 - Where are you ?.mp3
    Track gain             : -7.85 dB
    Peak                   : 1.000000
    CRC32 hash (test run)  : 0CE69A3C
    CRC32 hash             : 0CE69A3C
    CRC32 hash (skip zero) : D19037B2
    AccurateRip signature  : A1268DB9
        ->Accurately ripped! (confidence 1)
    Statistics
        Read error                           : 0
        Skipped (treated as error)           : 0
        Edge jitter error (maybe fixed)      : 0
        Atom jitter error (maybe fixed)      : 0
        Drift error (maybe fixed)            : 0
        Dropped bytes error (maybe fixed)    : 0
        Duplicated bytes error (maybe fixed) : 0
        Inconsistency in error sectors       : 0
Track 03
    Filename : /Users/maxime/Desktop/03 - Over you.flac
               /Users/maxime/Desktop/03 - Over you.mp3
    Track gain             : -7.73 dB
    Peak                   : 1.000000
    CRC32 hash (test run)  : E65927E4
    CRC32 hash             : E65927E4
    CRC32 hash (skip zero) : B01A8736
    AccurateRip signature  : 7550255D
        ->Accurately ripped! (confidence 1)
    Statistics
        Read error                           : 0
        Skipped (treated as error)           : 0
        Edge jitter error (maybe fixed)      : 0
        Atom jitter error (maybe fixed)      : 0
        Drift error (maybe fixed)            : 0
        Dropped bytes error (maybe fixed)    : 0
        Duplicated bytes error (maybe fixed) : 0
        Inconsistency in error sectors       : 0
Track 04
    Filename : /Users/maxime/Desktop/04 - Let your body talk.flac
               /Users/maxime/Desktop/04 - Let your body talk.mp3
    Track gain             : -7.03 dB
    Peak                   : 1.000000
    CRC32 hash (test run)  : A8F69FB5
    CRC32 hash             : A8F69FB5
    CRC32 hash (skip zero) : B768B548
    AccurateRip signature  : 35DCD50A
        ->Accurately ripped! (confidence 1)
    Statistics
        Read error                           : 0
        Skipped (treated as error)           : 0
        Edge jitter error (maybe fixed)      : 0
        Atom jitter error (maybe fixed)      : 0
        Drift error (maybe fixed)            : 0
        Dropped bytes error (maybe fixed)    : 0
        Duplicated bytes error (maybe fixed) : 0
        Inconsistency in error sectors       : 0
Track 05
    Filename : /Users/maxime/Desktop/05 - Little baby girl.flac
               /Users/maxime/Desktop/05 - Little baby girl.mp3
    Track gain             : -6.80 dB
    Peak                   : 1.000000
    CRC32 hash (test run)  : 5F9A996C
    CRC32 hash             : 5F9A996C
    CRC32 hash (skip zero) : 5C1C4256
    AccurateRip signature  : 43533B43
        ->Accurately ripped! (confidence 1)
    Statistics
        Read error                           : 0
        Skipped (treated as error)           : 0
        Edge jitter error (maybe fixed)      : 0
        Atom jitter error (maybe fixed)      : 0
        Drift error (maybe fixed)            : 0
        Dropped bytes error (maybe fixed)    : 0
        Duplicated bytes error (maybe fixed) : 0
        Inconsistency in error sectors       : 0
Track 06
    Filename : /Users/maxime/Desktop/06 - U see.flac
               /Users/maxime/Desktop/06 - U see.mp3
    Track gain             : -7.67 dB
    Peak                   : 1.000000
    CRC32 hash (test run)  : A88D1C26
    CRC32 hash             : A88D1C26
    CRC32 hash (skip zero) : F81123A8
    AccurateRip signature  : 22678DE7
        ->Accurately ripped! (confidence 1)
    Statistics
        Read error                           : 0
        Skipped (treated as error)           : 0
        Edge jitter error (maybe fixed)      : 0
        Atom jitter error (maybe fixed)      : 0
        Drift error (maybe fixed)            : 0
        Dropped bytes error (maybe fixed)    : 0
        Duplicated bytes error (maybe fixed) : 0
        Inconsistency in error sectors       : 0
Track 07
    Filename : /Users/maxime/Desktop/07 - In my dreams.flac
               /Users/maxime/Desktop/07 - In my dreams.mp3
    Track gain             : -4.93 dB
    Peak                   : 1.000000
    CRC32 hash (test run)  : C5F40E39
    CRC32 hash             : C5F40E39
    CRC32 hash (skip zero) : 37F83CF0
    AccurateRip signature  : F9450505
        ->Accurately ripped! (confidence 1)
    Statistics
        Read error                           : 0
        Skipped (treated as error)           : 0
        Edge jitter error (maybe fixed)      : 0
        Atom jitter error (maybe fixed)      : 0
        Drift error (maybe fixed)            : 0
        Dropped bytes error (maybe fixed)    : 0
        Duplicated bytes error (maybe fixed) : 0
        Inconsistency in error sectors       : 0
Track 08
    Filename : /Users/maxime/Desktop/08 - The girl in red.flac
               /Users/maxime/Desktop/08 - The girl in red.mp3
    Track gain             : -8.79 dB
    Peak                   : 0.999969
    CRC32 hash (test run)  : 59FF8FB5
    CRC32 hash             : 59FF8FB5
    CRC32 hash (skip zero) : E3B47AA0
    AccurateRip signature  : BE3E1A7D
        ->Accurately ripped! (confidence 1)
    Statistics
        Read error                           : 0
        Skipped (treated as error)           : 0
        Edge jitter error (maybe fixed)      : 0
        Atom jitter error (maybe fixed)      : 0
        Drift error (maybe fixed)            : 0
        Dropped bytes error (maybe fixed)    : 0
        Duplicated bytes error (maybe fixed) : 0
        Inconsistency in error sectors       : 0
Track 09
    Filename : /Users/maxime/Desktop/09 - Louder.flac
               /Users/maxime/Desktop/09 - Louder.mp3
    Track gain             : -8.95 dB
    Peak                   : 1.000000
    CRC32 hash (test run)  : 318092A7
    CRC32 hash             : 318092A7
    CRC32 hash (skip zero) : D29D9D74
    AccurateRip signature  : C64F869E
        ->Accurately ripped! (confidence 1)
    Statistics
        Read error                           : 0
        Skipped (treated as error)           : 0
        Edge jitter error (maybe fixed)      : 0
        Atom jitter error (maybe fixed)      : 0
        Drift error (maybe fixed)            : 0
        Dropped bytes error (maybe fixed)    : 0
        Duplicated bytes error (maybe fixed) : 0
        Inconsistency in error sectors       : 0
Track 10
    Filename : /Users/maxime/Desktop/10 - Nightmares.flac
               /Users/maxime/Desktop/10 - Nightmares.mp3
    Track gain             : -6.04 dB
    Peak                   : 1.000000
    CRC32 hash (test run)  : 7407479F
    CRC32 hash             : 7407479F
    CRC32 hash (skip zero) : EB9D7AFA
    AccurateRip signature  : 30D76C2E
        ->Accurately ripped! (confidence 1)
    Statistics
        Read error                           : 0
        Skipped (treated as error)           : 0
        Edge jitter error (maybe fixed)      : 0
        Atom jitter error (maybe fixed)      : 0
        Drift error (maybe fixed)            : 0
        Dropped bytes error (maybe fixed)    : 0
        Duplicated bytes error (maybe fixed) : 0
        Inconsistency in error sectors       : 0
Track 11
    Filename : /Users/maxime/Desktop/11 - Daddy DJ (J&B Trance Club mix).flac
               /Users/maxime/Desktop/11 - Daddy DJ (J&B Trance Club mix).mp3
    Track gain             : -6.97 dB
    Peak                   : 0.999969
    CRC32 hash (test run)  : 9E1EBD4E
    CRC32 hash             : 9E1EBD4E
    CRC32 hash (skip zero) : 6B0F3FF4
    AccurateRip signature  : 8962D304
        ->Accurately ripped! (confidence 1)
    Statistics
        Read error                           : 0
        Skipped (treated as error)           : 0
        Edge jitter error (maybe fixed)      : 0
        Atom jitter error (maybe fixed)      : 0
        Drift error (maybe fixed)            : 0
        Dropped bytes error (maybe fixed)    : 0
        Duplicated bytes error (maybe fixed) : 0
        Inconsistency in error sectors       : 0
Track 12
    Filename : /Users/maxime/Desktop/12 - The girl in red (Chico & Tonio feat. J&B Club mix).flac
               /Users/maxime/Desktop/12 - The girl in red (Chico & Tonio feat. J&B Club mix).mp3
    Track gain             : -6.70 dB
    Peak                   : 0.999969
    CRC32 hash (test run)  : 59B7EA51
    CRC32 hash             : 59B7EA51
    CRC32 hash (skip zero) : EEB5F632
    AccurateRip signature  : 011FC2E7
        ->Accurately ripped! (confidence 1)
    Statistics
        Read error                           : 0
        Skipped (treated as error)           : 0
        Edge jitter error (maybe fixed)      : 0
        Atom jitter error (maybe fixed)      : 0
        Drift error (maybe fixed)            : 0
        Dropped bytes error (maybe fixed)    : 0
        Duplicated bytes error (maybe fixed) : 0
        Inconsistency in error sectors       : 0
Track 13
    Filename : /Users/maxime/Desktop/13 - Daddy DJ (Mr Manu Underground Mix).flac
               /Users/maxime/Desktop/13 - Daddy DJ (Mr Manu Underground Mix).mp3
    Track gain             : -7.37 dB
    Peak                   : 0.999969
    CRC32 hash (test run)  : C151A192
    CRC32 hash             : C151A192
    CRC32 hash (skip zero) : 367F7EB3
    AccurateRip signature  : A7FA5352
        ->Accurately ripped! (confidence 1)
    Statistics
        Read error                           : 0
        Skipped (treated as error)           : 0
        Edge jitter error (maybe fixed)      : 0
        Atom jitter error (maybe fixed)      : 0
        Drift error (maybe fixed)            : 0
        Dropped bytes error (maybe fixed)    : 0
        Duplicated bytes error (maybe fixed) : 0
        Inconsistency in error sectors       : 0
No errors occurred
End of status report
Код:
AUDIOCHECKER v2.0 beta (build 457) - by Dester - opdester@freemail.hu
~~~~~~~~~~~~~~~~~~~~~~~~~~~~~~~~~~
Started at: воскресенье, 01. 08. 2010. - 22:35.08
13 files found
01 -===- C:\Музыка Lossless\Электронная музыка\Daddy DJ - Let Your Body Talk [FLAC]\01 - Daddy DJ.flac
  Extracted successfully
  Conclusion: this track is CDDA with probability 100%
  Tempfile successfully deleted.
02 -===- C:\Музыка Lossless\Электронная музыка\Daddy DJ - Let Your Body Talk [FLAC]\02 - Where are you.flac
  Extracted successfully
  Conclusion: this track is CDDA with probability 100%
  Tempfile successfully deleted.
03 -===- C:\Музыка Lossless\Электронная музыка\Daddy DJ - Let Your Body Talk [FLAC]\03 - Over you.flac
  Extracted successfully
  Conclusion: this track is MPEG with probability 95%
  Tempfile successfully deleted.
04 -===- C:\Музыка Lossless\Электронная музыка\Daddy DJ - Let Your Body Talk [FLAC]\04 - Let your body talk.flac
  Extracted successfully
  Conclusion: this track is CDDA with probability 100%
  Tempfile successfully deleted.
05 -===- C:\Музыка Lossless\Электронная музыка\Daddy DJ - Let Your Body Talk [FLAC]\05 - Little baby girl.flac
  Extracted successfully
  Conclusion: this track is CDDA with probability 100%
  Tempfile successfully deleted.
06 -===- C:\Музыка Lossless\Электронная музыка\Daddy DJ - Let Your Body Talk [FLAC]\06 - U see.flac
  Extracted successfully
  Conclusion: this track is CDDA with probability 100%
  Tempfile successfully deleted.
07 -===- C:\Музыка Lossless\Электронная музыка\Daddy DJ - Let Your Body Talk [FLAC]\07 - In my dreams.flac
  Extracted successfully
  Conclusion: this track is CDDA with probability 100%
  Tempfile successfully deleted.
08 -===- C:\Музыка Lossless\Электронная музыка\Daddy DJ - Let Your Body Talk [FLAC]\08 - The girl in red.flac
  Extracted successfully
  Conclusion: this track is CDDA with probability 100%
  Tempfile successfully deleted.
09 -===- C:\Музыка Lossless\Электронная музыка\Daddy DJ - Let Your Body Talk [FLAC]\09 - Louder.flac
  Extracted successfully
  Conclusion: this track is CDDA with probability 100%
  Tempfile successfully deleted.
10 -===- C:\Музыка Lossless\Электронная музыка\Daddy DJ - Let Your Body Talk [FLAC]\10 - Nightmares.flac
  Extracted successfully
  Conclusion: this track is CDDA with probability 99%
  Tempfile successfully deleted.
11 -===- C:\Музыка Lossless\Электронная музыка\Daddy DJ - Let Your Body Talk [FLAC]\11 - Daddy DJ (J&B Trance Club mix).flac
  Extracted successfully
  Conclusion: this track is MPEG with probability 95%
  Tempfile successfully deleted.
12 -===- C:\Музыка Lossless\Электронная музыка\Daddy DJ - Let Your Body Talk [FLAC]\12 - The girl in red (Chico & Tonio feat. J&B Club mix).flac
  Extracted successfully
  Conclusion: this track is MPEG with probability 95%
  Tempfile successfully deleted.
13 -===- C:\Музыка Lossless\Электронная музыка\Daddy DJ - Let Your Body Talk [FLAC]\13 - Daddy DJ (Mr Manu Underground Mix).flac
  Extracted successfully
  Conclusion: this track is CDDA with probability 100%
  Tempfile successfully deleted.
Finished at: воскресенье, 01. 08. 2010. - 22:41.20 (operation time: 0:06.11)
Правила, инструкции, FAQ!!!
Торрент  Добавлен [23 май 2019, 20:06] Скачать торрент Магнет ссылка
Скачать торрент
[ Размер 16.31 КБ / Просмотров 6 ]

Статус
Проверен 
 
Размер  384.83 МБ
Приватный: Нет (DHT включён)
.torrent скачан  0
Как залить торрент? | Как скачать Torrent? | Ошибка в торренте? Качайте магнет  


     Отправить личное сообщение
   
Страница 1 из 1
Показать сообщения за:  Поле сортировки  
Начать новую тему Ответить на тему


Сейчас этот форум просматривают: нет зарегистрированных пользователей и гости: 0


Вы не можете начинать темы
Вы не можете отвечать на сообщения
Вы не можете редактировать свои сообщения
Вы не можете удалять свои сообщения
Вы не можете добавлять вложения

Перейти:  
Ресурс не предоставляет электронные версии произведений, а занимается лишь коллекционированием и каталогизацией ссылок, присылаемых и публикуемых на форуме нашими читателями. Если вы являетесь правообладателем какого-либо представленного материала и не желаете чтобы ссылка на него находилась в нашем каталоге, свяжитесь с нами и мы незамедлительно удалим её. Файлы для обмена на трекере предоставлены пользователями сайта, и администрация не несёт ответственности за их содержание. Просьба не заливать файлы, защищенные авторскими правами, а также файлы нелегального содержания!
cron