Начать новую тему Ответить на тему
Статистика раздачи
Размер: 319.46 МБ | Добавлен: 23 май 2019, 20:02 | Скачали: 0
Сидеров: 0  [0 байт/сек]    Личеров: 0  [0 байт/сек]
Пред. тема | След. тема 

Автор
Сообщение

СообщениеДобавлено: 23 май 2019, 20:02 

Ответить с цитатой 


Culture Beat - Crying In The Rain (Remix)
(CD-Maxi)
Жанр: Euro House
Страна-производитель диска: Germany
Год издания диска: 1996
Издатель (лейбл): Dance Pool
Номер по каталогу: DAN 662882 5
Аудиокодек: FLAC (*.flac)
Тип рипа: image+.cue
Битрейт аудио: lossless
Продолжительность: 0:45:48
Источник (релизер): DENnv
Наличие сканов в содержимом раздачи: да, PNG (300 dpi)
Треклист:
1. Crying In The Rain (Aboria Euro Radio Mix) (3:49)
2. Crying In The Rain (Temple Of Light Mix) (6:31)
3. Crying In The Rain (Celvin Rotane Mix) (6:58)
4. Crying In The Rain (Stonebridge & Nick Nice Club Mix) (8:10)
5. Crying In The Rain (GroBer Club Mix) (7:58)
6. Crying In The Rain (Jim Clarke Mix) (5:36)
7. Crying In The Rain (Aboria Euro 12" Mix) (6:43)


Код:
Exact Audio Copy V1.0 beta 3 from 29. August 2011
Отчёт EAC об извлечении, выполненном 19. марта 2012, 22:07
Culture Beat / Inside Out (Remix) (CDM)
Дисковод: LITE-ON DVDRW SHM-165P6S   Adapter: 0  ID: 0
Режим чтения                 : Достоверность
Использование точного потока : Да
Отключение кэша аудио        : Да
Использование указателей C2  : Нет
Коррекция смещения при чтении                     : 6
Способность читать области Lead-in и Lead-out     : Нет
Заполнение пропущенных сэмплов тишиной            : Да
Удаление блоков с тишиной в начале и конце        : Нет
При вычислениях CRC использовались нулевые сэмплы : Да
Интерфейс                                         : Встроенный Win32-интерфейс для Win NT/2000
Выходной формат          : Пользовательский кодировщик
Выбранный битрейт        : 896 kBit/s
Качество                 : Высокий
Добавление ID3-тега      : Нет
Утилита сжатия           : C:\Program Files\Exact Audio Copy\Flac\flac.exe
Дополнительные параметры : -V -8 -T "Date=%year%" -T "Genre=%genre%" %source%
TOC извлечённого CD
     Трек |   Старт  | Длительность | Начальный сектор | Конечный сектор
    ---------------------------------------------------------------------
       1  |  0:00.00 |    3:36.62   |           0      |      16261
       2  |  3:36.62 |    3:50.63   |       16262      |      33574
       3  |  7:27.50 |    6:17.25   |       33575      |      61874
       4  | 13:45.00 |    6:28.62   |       61875      |      91036
       5  | 20:13.62 |    5:02.00   |       91037      |     113686
       6  | 25:15.62 |    7:39.63   |      113687      |     148174
       7  | 32:55.50 |    7:53.25   |      148175      |     183674
       8  | 40:49.00 |    7:22.50   |      183675      |     216874
       9  | 48:11.50 |    9:49.12   |      216875      |     261061
      10  | 58:00.62 |    6:19.63   |      261062      |     289549
      11  | 64:20.50 |    8:57.67   |      289550      |     329891
Характеристики диапазона извлечения и сообщения об ошибках
Выбранный диапазон
     Имя файла E:\2222222222\Culture Beat - Inside Out (Remix) (CDM) (1995) (lossless-DENnv)\Culture Beat - Inside Out (Remix) (CDM).wav
     Пиковый уровень 98.2 %
     Скорость извлечения 2.6 X
     Качество диапазона 100.0 %
     CRC теста D8C25748
     CRC копии 0C85AD4E
     Копирование... OK
Ошибок не произошло
AccurateRip: сводка
Трек  1  : извлечено точно (доверие 2)  [3EC45522]  (AR v2)
Трек  2  : извлечено точно (доверие 2)  [779BA90C]  (AR v2)
Трек  3  : извлечено точно (доверие 2)  [88C521AD]  (AR v2)
Трек  4  : извлечено точно (доверие 2)  [816EB98A]  (AR v2)
Трек  5  : извлечено точно (доверие 2)  [3500560C]  (AR v2)
Трек  6  : извлечено точно (доверие 2)  [FC969382]  (AR v2)
Трек  7  : извлечено точно (доверие 2)  [F4D8B9F7]  (AR v2)
Трек  8  : извлечено точно (доверие 2)  [ED6EDAD8]  (AR v2)
Трек  9  точность не определена (достоверность 8)  [48ACF60F], AccurateRip вернул [2F995ADD]  (AR v2)
Трек 10  : извлечено точно (доверие 2)  [A5BAB0C1]  (AR v2)
Трек 11  : извлечено точно (доверие 2)  [BB10D929]  (AR v2)
10 трек(и) скопированы точно
 1 трек(и) не удалось проверить на точность
Некоторые треки не прошли проверку на точность
Конец отчёта
==== Контрольная сумма отчёта 79E37161C6217EF601AC186AEE64536D816BFA481B5AD457947352591FB8A43A ====

Мой рип с фирменного диска, как и все мои лосслесс раздачи.
"СПАСИБО!" и разносторонние комментарии
будут приятны и не дадут теме уйти в неизвестность.
Молчание качающих провоцирует лень релизёра. Учтите это!

Раздача проходит под девизом:


Правила, инструкции, FAQ!!!
Торрент  Добавлен [23 май 2019, 20:02] Скачать торрент Магнет ссылка
Скачать торрент
[ Размер 13.37 КБ / Просмотров 5 ]

Статус
Проверен 
 
Размер  319.46 МБ
Приватный: Нет (DHT включён)
.torrent скачан  0
Как залить торрент? | Как скачать Torrent? | Ошибка в торренте? Качайте магнет  


     Отправить личное сообщение
   
Страница 1 из 1
Показать сообщения за:  Поле сортировки  
Начать новую тему Ответить на тему


Сейчас этот форум просматривают: нет зарегистрированных пользователей и гости: 0


Вы не можете начинать темы
Вы не можете отвечать на сообщения
Вы не можете редактировать свои сообщения
Вы не можете удалять свои сообщения
Вы не можете добавлять вложения

Перейти:  
Ресурс не предоставляет электронные версии произведений, а занимается лишь коллекционированием и каталогизацией ссылок, присылаемых и публикуемых на форуме нашими читателями. Если вы являетесь правообладателем какого-либо представленного материала и не желаете чтобы ссылка на него находилась в нашем каталоге, свяжитесь с нами и мы незамедлительно удалим её. Файлы для обмена на трекере предоставлены пользователями сайта, и администрация не несёт ответственности за их содержание. Просьба не заливать файлы, защищенные авторскими правами, а также файлы нелегального содержания!
cron