Начать новую тему Ответить на тему
Статистика раздачи
Размер: 147.5 МБ | Добавлен: 23 май 2019, 20:06 | Скачали: 0
Сидеров: 0  [0 байт/сек]    Личеров: 0  [0 байт/сек]
Пред. тема | След. тема 

Автор
Сообщение

СообщениеДобавлено: 23 май 2019, 20:06 

Ответить с цитатой 

DJ Costa ‎– Bam Bam Boo (Maxi CD)
Жанр: Euro House
Страна-производитель диска: Germany
Год издания: 1999
Издатель (лейбл): Coil Records
Номер по каталогу: COI 0002-8
Аудиокодек: FLAC (*.flac)
Тип рипа: image+.cue
Битрейт аудио: lossless
Продолжительность: 12:55
Источник (релизер): Собственный рип
Наличие сканов в содержимом раздачи: да
Треклист:
1 Bam Bam Boo (Video-Cut) 3:12
2 Bam Bam Boo (Maxi-Version) 4:46
3 I Want You Wild (Maxi-Version) 5:01
Код:
Exact Audio Copy V1.0 beta 2 from 29. April 2011
Отчёт EAC об извлечении, выполненном 30. августа 2012, 12:24
DJ Costa / Bam Bam Boo mcd
Дисковод: Optiarc DVD RW AD-7200S   Adapter: 2  ID: 0
Режим чтения                 : Достоверность
Использование точного потока : Да
Отключение кэша аудио        : Да
Использование указателей C2  : Нет
Коррекция смещения при чтении                     : 48
Способность читать области Lead-in и Lead-out     : Нет
Заполнение пропущенных сэмплов тишиной            : Да
Удаление блоков с тишиной в начале и конце        : Нет
При вычислениях CRC использовались нулевые сэмплы : Да
Интерфейс                                         : Встроенный Win32-интерфейс для Win NT/2000
Выходной формат : Внутренние WAV-операции
Формат сэмплов  : 44.100 Гц; 16 бит; стерео
TOC извлечённого CD
     Трек |   Старт  | Длительность | Начальный сектор | Конечный сектор
    ---------------------------------------------------------------------
       1  |  0:00.00 |    3:13.61   |           0      |      14535
       2  |  3:13.61 |    4:47.53   |       14536      |      36113
       3  |  8:01.39 |    4:57.72   |       36114      |      58460
Характеристики диапазона извлечения и сообщения об ошибках
Выбранный диапазон
     Имя файла C:\Documents and Settings\vova\Рабочий стол\DJ Costa - Bam Bam Boo mcd.wav
     Пиковый уровень 100.0 %
     Скорость извлечения 2.8 X
     Качество диапазона 100.0 %
     CRC теста 40751678
     CRC копии 40751678
     Копирование... OK
Ошибок не произошло
AccurateRip: сводка
Трек  1  : извлечено точно (доверие 1)  [3FD40347]  (AR v1)
Трек  2  : извлечено точно (доверие 1)  [1F5EE810]  (AR v1)
Трек  3  : извлечено точно (доверие 1)  [D50B2C7A]  (AR v1)
Все треки извлечены точно
Конец отчёта
Доп. информация: http://www.discogs.com/DJ-Costa-Bam-Bam-Boo/release/1398263
Правила, инструкции, FAQ!!!
Торрент  Добавлен [23 май 2019, 20:06] Скачать торрент Магнет ссылка
Скачать торрент
[ Размер 1.23 КБ / Просмотров 3 ]

Статус
Проверен 
 
Размер  147.5 МБ
Приватный: Нет (DHT включён)
.torrent скачан  0
Как залить торрент? | Как скачать Torrent? | Ошибка в торренте? Качайте магнет  


     Отправить личное сообщение
   
Страница 1 из 1
Показать сообщения за:  Поле сортировки  
Начать новую тему Ответить на тему


Сейчас этот форум просматривают: нет зарегистрированных пользователей и гости: 0


Вы не можете начинать темы
Вы не можете отвечать на сообщения
Вы не можете редактировать свои сообщения
Вы не можете удалять свои сообщения
Вы не можете добавлять вложения

Перейти:  
Ресурс не предоставляет электронные версии произведений, а занимается лишь коллекционированием и каталогизацией ссылок, присылаемых и публикуемых на форуме нашими читателями. Если вы являетесь правообладателем какого-либо представленного материала и не желаете чтобы ссылка на него находилась в нашем каталоге, свяжитесь с нами и мы незамедлительно удалим её. Файлы для обмена на трекере предоставлены пользователями сайта, и администрация не несёт ответственности за их содержание. Просьба не заливать файлы, защищенные авторскими правами, а также файлы нелегального содержания!
cron