Начать новую тему Ответить на тему
Статистика раздачи
Размер: 184.09 МБ | Добавлен: 23 май 2019, 20:05 | Скачали: 0
Сидеров: 0  [0 байт/сек]    Личеров: 0  [0 байт/сек]
Пред. тема | След. тема 

Автор
Сообщение

СообщениеДобавлено: 23 май 2019, 20:05 

Ответить с цитатой 

Carnevall ‎– What Is Love (Maxi CD)
Жанр: Euro House
Страна-производитель диска: Slovakia
Год издания: 1995
Издатель (лейбл): Musica
Номер по каталогу: 720 531-2
Аудиокодек: FLAC (*.flac)
Тип рипа: image+.cue
Битрейт аудио: lossless
Продолжительность: 21:03
Источник (релизер): Собственный рип
Наличие сканов в содержимом раздачи: да
Треклист:
1 What Is Love (Radio Dance Mix) 3:32
2 What Is Love (Extended Dance Mix) 5:16
3 What Is Love (Club Mix) 4:12
4 What Is Love (Radio Mix) 3:59
5 Smidli Daj 4:04
Код:
Exact Audio Copy V1.0 beta 2 from 29. April 2011
Отчёт EAC об извлечении, выполненном 2. января 2013, 23:28
Carnevall / What Is Love
Дисковод: Optiarc DVD RW AD-7200S   Adapter: 2  ID: 0
Режим чтения                 : Достоверность
Использование точного потока : Да
Отключение кэша аудио        : Да
Использование указателей C2  : Нет
Коррекция смещения при чтении                     : 48
Способность читать области Lead-in и Lead-out     : Нет
Заполнение пропущенных сэмплов тишиной            : Да
Удаление блоков с тишиной в начале и конце        : Нет
При вычислениях CRC использовались нулевые сэмплы : Да
Интерфейс                                         : Встроенный Win32-интерфейс для Win NT/2000
Выходной формат : Внутренние WAV-операции
Формат сэмплов  : 44.100 Гц; 16 бит; стерео
TOC извлечённого CD
     Трек |   Старт  | Длительность | Начальный сектор | Конечный сектор
    ---------------------------------------------------------------------
       1  |  0:00.00 |    3:34.55   |           0      |      16104
       2  |  3:34.55 |    5:18.32   |       16105      |      39986
       3  |  8:53.12 |    4:14.48   |       39987      |      59084
       4  | 13:07.60 |    4:01.52   |       59085      |      77211
       5  | 17:09.37 |    4:04.15   |       77212      |      95526
Характеристики диапазона извлечения и сообщения об ошибках
Выбранный диапазон
     Имя файла C:\Documents and Settings\vova\Рабочий стол\Carnevall - What Is Love.wav
     Пиковый уровень 97.0 %
     Скорость извлечения 3.1 X
     Качество диапазона 100.0 %
     CRC теста 5C2BA485
     CRC копии 5C2BA485
     Копирование... OK
Ошибок не произошло
AccurateRip: сводка
Трек  1  отсутствует в базе данных
Трек  2  отсутствует в базе данных
Трек  3  отсутствует в базе данных
Трек  4  отсутствует в базе данных
Трек  5  отсутствует в базе данных
Ни одного трека нет в базе AccurateRip
Конец отчёта
Доп. информация: http://www.discogs.com/Carnevall-What-Is-Love/release/1554250
Правила, инструкции, FAQ!!!
Торрент  Добавлен [23 май 2019, 20:05] Скачать торрент Магнет ссылка
Скачать торрент
[ Размер 1.25 КБ / Просмотров 3 ]

Статус
Проверен 
 
Размер  184.09 МБ
Приватный: Нет (DHT включён)
.torrent скачан  0
Как залить торрент? | Как скачать Torrent? | Ошибка в торренте? Качайте магнет  


     Отправить личное сообщение
   
Страница 1 из 1
Показать сообщения за:  Поле сортировки  
Начать новую тему Ответить на тему


Сейчас этот форум просматривают: нет зарегистрированных пользователей и гости: 0


Вы не можете начинать темы
Вы не можете отвечать на сообщения
Вы не можете редактировать свои сообщения
Вы не можете удалять свои сообщения
Вы не можете добавлять вложения

Перейти:  
Ресурс не предоставляет электронные версии произведений, а занимается лишь коллекционированием и каталогизацией ссылок, присылаемых и публикуемых на форуме нашими читателями. Если вы являетесь правообладателем какого-либо представленного материала и не желаете чтобы ссылка на него находилась в нашем каталоге, свяжитесь с нами и мы незамедлительно удалим её. Файлы для обмена на трекере предоставлены пользователями сайта, и администрация не несёт ответственности за их содержание. Просьба не заливать файлы, защищенные авторскими правами, а также файлы нелегального содержания!
cron