Начать новую тему Ответить на тему
Статистика раздачи
Размер: 4.35 ГБ | Добавлен: 02 апр 2019, 20:34 | Скачали: 0
Сидеров: 1  [0 байт/сек]    Личеров: 0  [0 байт/сек]
Пред. тема | След. тема 

Автор
Сообщение

СообщениеДобавлено: 02 апр 2019, 20:34 

Ответить с цитатой 

Hilary Hahn, London Symphony Orchestra, Sir Colin Davis / Elgar - Violin Concerto
Формат записи/Источник записи: [SACD-R][OF]
Наличие водяных знаков: Нет
Год издания/переиздания диска: 2004
Жанр: Classical
Издатель (лейбл): Deutsche Grammophon
Продолжительность: 01:06:04
Треклист:
Elgar: Violin Concerto in B minor, Op. 61 49:43
1. Allegro 18:01
2. Andante 12:17
3. Allegro molto 19:25
Vaughan Williams: The Lark Ascending 16:19
London Symphony Orchestra
Sir Colin Davis
Hilary Hahn (violin)
Контейнер: ISO (*.iso)
Тип рипа: image
Разрядность: 64(2,8 MHz/1 Bit)
Формат: DST64
Количество каналов: 5.1 + 2.0
Код:
foobar2000 1.3.17 / Dynamic Range Meter 1.1.1
log date: 2018-08-27 16:55:25
--------------------------------------------------------------------------------
Analyzed: Hilary Hahn, violin / Elgar: Violin Concerto/Vaughan Williams: The Lark Ascending
--------------------------------------------------------------------------------
DR         Peak         RMS     Duration Track
--------------------------------------------------------------------------------
DR15      -7.04 dB   -31.05 dB     18:01 01-Concerto: 1.Allegro
DR17      -7.44 dB   -34.74 dB     12:18 02-Concerto: 2.Andante
DR15      -7.00 dB   -31.98 dB     19:26 03-Concerto: 3.Allegro molto
DR15     -12.18 dB   -37.80 dB     16:19 04-The Lark Ascending
--------------------------------------------------------------------------------
Number of tracks:  4
Official DR value: DR16
Samplerate:        2822400 Hz / PCM Samplerate: 88200 Hz
Channels:          6
Bits per sample:   1
Bitrate:           16934 kbps
Codec:             DST64
================================================================================
--------------------------------------------------------------------------------
Analyzed: Hilary Hahn, violin / Elgar: Violin Concerto/Vaughan Williams: The Lark Ascending
--------------------------------------------------------------------------------
DR         Peak         RMS     Duration Track
--------------------------------------------------------------------------------
DR15      -7.03 dB   -27.53 dB     18:01 01-Concerto: 1.Allegro
DR17      -7.30 dB   -31.02 dB     12:18 02-Concerto: 2.Andante
DR15      -7.07 dB   -28.12 dB     19:26 03-Concerto: 3.Allegro molto
DR15     -10.16 dB   -33.75 dB     16:19 04-The Lark Ascending
--------------------------------------------------------------------------------
Number of tracks:  4
Official DR value: DR15
Samplerate:        2822400 Hz / PCM Samplerate: 88200 Hz
Channels:          2
Bits per sample:   1
Bitrate:           5645 kbps
Codec:             DST64
================================================================================
Доп. информация:
https://www.amazon.com/Elgar-Violin-Concerto-Williams-Ascending/dp/B0002HN14I
https://www.prestoclassical.co.uk/classical/products/7935087--elgar-violin-concerto
Источник (релизер): собственный рип
Оркестр: London Symphony Orchestra
Композитор: Edward Elgar, Ralph Vaughan Williams
Дирижер: Sir Colin Davis
Правила, инструкции, FAQ!!!
Торрент  Добавлен [02 апр 2019, 20:34] Скачать торрент Магнет ссылка
Скачать торрент
[ Размер 44.22 КБ / Просмотров 7 ]

Статус
Проверен 
 
Размер  4.35 ГБ
Приватный: Нет (DHT включён)
.torrent скачан  0
Как залить торрент? | Как скачать Torrent? | Ошибка в торренте? Качайте магнет  


     Отправить личное сообщение
   
Страница 1 из 1
Показать сообщения за:  Поле сортировки  
Начать новую тему Ответить на тему


Сейчас этот форум просматривают: нет зарегистрированных пользователей и гости: 0


Вы не можете начинать темы
Вы не можете отвечать на сообщения
Вы не можете редактировать свои сообщения
Вы не можете удалять свои сообщения
Вы не можете добавлять вложения

Перейти:  
Ресурс не предоставляет электронные версии произведений, а занимается лишь коллекционированием и каталогизацией ссылок, присылаемых и публикуемых на форуме нашими читателями. Если вы являетесь правообладателем какого-либо представленного материала и не желаете чтобы ссылка на него находилась в нашем каталоге, свяжитесь с нами и мы незамедлительно удалим её. Файлы для обмена на трекере предоставлены пользователями сайта, и администрация не несёт ответственности за их содержание. Просьба не заливать файлы, защищенные авторскими правами, а также файлы нелегального содержания!