Начать новую тему Ответить на тему
Статистика раздачи
Размер: 296.07 МБ | Добавлен: 23 май 2019, 20:06 | Скачали: 0
Сидеров: 0  [0 байт/сек]    Личеров: 0  [0 байт/сек]
Пред. тема | След. тема 

Автор
Сообщение

СообщениеДобавлено: 23 май 2019, 20:06 

Ответить с цитатой 

Dragonette - Fixin To Thrill
Жанр: Electropop
Год выпуска диска: 2009
Лейбл: Universal Music
Формат: CD, Album
Аудио кодек: FLAC
Тип рипа: tracks+.cue
Битрейт: lossless
Продолжительность: 42:46
Трэклист:
01. Fixin to Thrill (4:07)
02. Gone Too Far (3:40)
03. Liar (3:56)
04. Stupid Grin (3:45)
05. Easy (3:47)
06. Pick Up the Phone (3:35)
07. We Rule the World (3:41)
08. Big Sunglasses (3:30)
09. Okay Dolore (2:33)
10. Come On Be Good (3:22)
11. You're a Disaster (3:32)
12. Don't Be Funny (3:13)
Exact Audio Copy V0.99 prebeta 5 from 4. May 2009
EAC extraction logfile from 4. October 2009, 20:20
Dragonette / Fixin To Thrill
Used drive : TSSTcorpCD/DVDW SH-S183L Adapter: 0 ID: 1
Read mode : Secure
Utilize accurate stream : Yes
Defeat audio cache : Yes
Make use of C2 pointers : No
Read offset correction : 6
Overread into Lead-In and Lead-Out : No
Fill up missing offset samples with silence : Yes
Delete leading and trailing silent blocks : No
Null samples used in CRC calculations : Yes
Used interface : Native Win32 interface for Win NT & 2000
Gap handling : Appended to previous track
Used output format : User Defined Encoder
Selected bitrate : 128 kBit/s
Quality : High
Add ID3 tag : No
Command line compressor : C:\Program Files (x86)\FLAC\flac.exe
Additional command line options : -V -8 -T "artist=%a" -T "title=%t" -T "album=%g" -T "date=%y" -T "tracknumber=%n" -T "genre=%m" %s
TOC of the extracted CD
Track | Start | Length | Start sector | End sector
---------------------------------------------------------
1 | 0:00.00 | 4:07.70 | 0 | 18594
2 | 4:07.70 | 3:40.22 | 18595 | 35116
3 | 7:48.17 | 3:56.01 | 35117 | 52817
4 | 11:44.18 | 3:45.07 | 52818 | 69699
5 | 15:29.25 | 3:47.41 | 69700 | 86765
6 | 19:16.66 | 3:35.36 | 86766 | 102926
7 | 22:52.27 | 3:41.19 | 102927 | 119520
8 | 26:33.46 | 3:30.65 | 119521 | 135335
9 | 30:04.36 | 2:33.56 | 135336 | 146866
10 | 32:38.17 | 3:22.26 | 146867 | 162042
11 | 36:00.43 | 3:32.29 | 162043 | 177971
12 | 39:32.72 | 3:13.53 | 177972 | 192499
Track 1
Filename C:\EACRips\Dragonette - Fixin To Thrill - 01 - Fixin to Thrill.wav
Pre-gap length 0:00:02.00
Peak level 99.9 %
Track quality 100.0 %
Test CRC 29298873
Copy CRC 29298873
Track not present in AccurateRip database
Copy OK
Track 2
Filename C:\EACRips\Dragonette - Fixin To Thrill - 02 - Gone Too Far.wav
Pre-gap length 0:00:01.22
Peak level 99.9 %
Track quality 100.0 %
Test CRC CDB74A23
Copy CRC CDB74A23
Track not present in AccurateRip database
Copy OK
Track 3
Filename C:\EACRips\Dragonette - Fixin To Thrill - 03 - Liar.wav
Peak level 99.9 %
Track quality 100.0 %
Test CRC 0EE4BB0B
Copy CRC 0EE4BB0B
Track not present in AccurateRip database
Copy OK
Track 4
Filename C:\EACRips\Dragonette - Fixin To Thrill - 04 - Stupid Grin.wav
Peak level 100.0 %
Track quality 100.0 %
Test CRC 2E9B8578
Copy CRC 2E9B8578
Track not present in AccurateRip database
Copy OK
Track 5
Filename C:\EACRips\Dragonette - Fixin To Thrill - 05 - Easy.wav
Peak level 99.9 %
Track quality 100.0 %
Test CRC 414EDD18
Copy CRC 414EDD18
Track not present in AccurateRip database
Copy OK
Track 6
Filename C:\EACRips\Dragonette - Fixin To Thrill - 06 - Pick Up the Phone.wav
Peak level 99.9 %
Track quality 100.0 %
Test CRC 3D1CCCE8
Copy CRC 3D1CCCE8
Track not present in AccurateRip database
Copy OK
Track 7
Filename C:\EACRips\Dragonette - Fixin To Thrill - 07 - We Rule the World.wav
Peak level 99.9 %
Track quality 100.0 %
Test CRC 21FB8EFC
Copy CRC 21FB8EFC
Track not present in AccurateRip database
Copy OK
Track 8
Filename C:\EACRips\Dragonette - Fixin To Thrill - 08 - Big Sunglasses.wav
Peak level 99.9 %
Track quality 99.9 %
Test CRC CD090ACD
Copy CRC CD090ACD
Track not present in AccurateRip database
Copy OK
Track 9
Filename C:\EACRips\Dragonette - Fixin To Thrill - 09 - Okay Dolore.wav
Peak level 99.9 %
Track quality 99.9 %
Test CRC AC2EEAB1
Copy CRC AC2EEAB1
Track not present in AccurateRip database
Copy OK
Track 10
Filename C:\EACRips\Dragonette - Fixin To Thrill - 10 - Come On Be Good.wav
Peak level 99.9 %
Track quality 100.0 %
Test CRC 735C0EB6
Copy CRC 735C0EB6
Track not present in AccurateRip database
Copy OK
Track 11
Filename C:\EACRips\Dragonette - Fixin To Thrill - 11 - You're a Disaster.wav
Peak level 99.9 %
Track quality 100.0 %
Test CRC FAF45FF0
Copy CRC FAF45FF0
Track not present in AccurateRip database
Copy OK
Track 12
Filename C:\EACRips\Dragonette - Fixin To Thrill - 12 - Don't Be Funny.wav
Peak level 99.9 %
Track quality 100.0 %
Test CRC A93BA370
Copy CRC A93BA370
Track not present in AccurateRip database
Copy OK
None of the tracks are present in the AccurateRip database
No errors occurred
End of status report
Время раздачи:
09:00-23:00/7
Правила, инструкции, FAQ!!!
Торрент  Добавлен [23 май 2019, 20:06] Скачать торрент Магнет ссылка
Скачать торрент
[ Размер 13.16 КБ / Просмотров 3 ]

Статус
Проверен 
 
Размер  296.07 МБ
Приватный: Нет (DHT включён)
.torrent скачан  0
Как залить торрент? | Как скачать Torrent? | Ошибка в торренте? Качайте магнет  


     Отправить личное сообщение
   
Страница 1 из 1
Показать сообщения за:  Поле сортировки  
Начать новую тему Ответить на тему


Сейчас этот форум просматривают: нет зарегистрированных пользователей и гости: 0


Вы не можете начинать темы
Вы не можете отвечать на сообщения
Вы не можете редактировать свои сообщения
Вы не можете удалять свои сообщения
Вы не можете добавлять вложения

Перейти:  
Ресурс не предоставляет электронные версии произведений, а занимается лишь коллекционированием и каталогизацией ссылок, присылаемых и публикуемых на форуме нашими читателями. Если вы являетесь правообладателем какого-либо представленного материала и не желаете чтобы ссылка на него находилась в нашем каталоге, свяжитесь с нами и мы незамедлительно удалим её. Файлы для обмена на трекере предоставлены пользователями сайта, и администрация не несёт ответственности за их содержание. Просьба не заливать файлы, защищенные авторскими правами, а также файлы нелегального содержания!
cron