Начать новую тему Ответить на тему
Статистика раздачи
Размер: 275.85 МБ | Добавлен: 11 июл 2019, 11:58 | Скачали: 0
Сидеров: 0  [0 байт/сек]    Личеров: 0  [0 байт/сек]
Пред. тема | След. тема 

Автор
Сообщение

СообщениеДобавлено: 11 июл 2019, 11:58 

Ответить с цитатой 

Fever Ray | Plunge
.
Karin Elisabeth Dreijer [birth name]: 07.04.1975 | Sweden (Nacka, Stockholms län)
Жанры: Electropop, Art Pop, Darkwave, Electro-Industrial
Издатель альбома: Rabid Records (Sweden)
Номер по каталогу: RABID 061CD
Дата релиза (CD / LP): 23.02.2018
Дата релиза (WEB): 27.10.2017
Аудиокодек: FLAC (*.flac)
Тип рипа: tracks+.cue
Формат: Album
Носитель: CD
Источник: redacted.ch
Время звучания: 00:47:03
Отсутствие сканов в содержимом раздачи: да
.
ТРЕКЛИСТ:
01. Wanna Sip [03:29]
02. Mustn't Hurry [04:18]
03. A Part of Us [03:31]
04. Falling [05:04]
05. IDK About You [03:41]
06. This Country [03:13]
07. Plunge [05:37]
08. To the Moon and Back [04:38]
09. Red Trails [04:51]
10. An Itch [03:46]
11. Mama's Hand [04:59]

Код:
Exact Audio Copy V1.3 from 2. September 2016
EAC extraction logfile from 23. February 2018, 11:22
Fever Ray / Plunge
Used drive  : HL-DT-STDVDRAM SP80NB80   Adapter: 1  ID: 1
Read mode               : Secure
Utilize accurate stream : Yes
Defeat audio cache      : Yes
Make use of C2 pointers : No
Read offset correction                      : 6
Overread into Lead-In and Lead-Out          : No
Fill up missing offset samples with silence : Yes
Delete leading and trailing silent blocks   : No
Null samples used in CRC calculations       : Yes
Used interface                              : Native Win32 interface for Win NT & 2000
Gap handling                                : Appended to previous track
Used output format              : User Defined Encoder
Selected bitrate                : 1024 kBit/s
Quality                         : High
Add ID3 tag                     : No
Command line compressor         : C:\Program Files (x86)\Exact Audio Copy\Flac\flac.exe
Additional command line options : -8 -e -p -V -T "ARTIST=%artist%" -T "TITLE=%title%" -T "ALBUM=%albumtitle%" -T "DATE=%year%" -T "TRACKNUMBER=%tracknr%" -T "GENRE=%genre%" -T "PERFORMER=%albuminterpret%" -T "COMPOSER=%composer%" %haslyrics%--tag-from-file=LYRICS="%lyricsfile%"%haslyrics% -T "ALBUMARTIST=%albumartist%" -T "DISCNUMBER=%cdnumber%" -T "TOTALDISCS=%totalcds%" -T "TOTALTRACKS=%numtracks%" -T "COMMENT=%comment%" %source% -o %dest%
TOC of the extracted CD
     Track |   Start  |  Length  | Start sector | End sector
    ---------------------------------------------------------
        1  |  0:00.00 |  3:28.66 |         0    |    15665
        2  |  3:28.66 |  4:17.67 |     15666    |    35007
        3  |  7:46.58 |  3:30.28 |     35008    |    50785
        4  | 11:17.11 |  5:03.27 |     50786    |    73537
        5  | 16:20.38 |  3:40.40 |     73538    |    90077
        6  | 20:01.03 |  3:12.06 |     90078    |   104483
        7  | 23:13.09 |  5:36.61 |    104484    |   129744
        8  | 28:49.70 |  4:37.71 |    129745    |   150590
        9  | 33:27.66 |  4:50.50 |    150591    |   172390
       10  | 38:18.41 |  3:45.63 |    172391    |   189328
       11  | 42:04.29 |  4:58.23 |    189329    |   211701
Track  1
     Filename C:\EAC Rips\Fever Ray - Plunge [FLAC] [CD] {RABID061}\ 01 - Wanna Sip.wav
     Pre-gap length  0:00:02.00
     Peak level 99.1 %
     Extraction speed 1.0 X
     Track quality 100.0 %
     Test CRC 346CB59E
     Copy CRC 346CB59E
     Track not present in AccurateRip database
     Copy OK
Track  2
     Filename C:\EAC Rips\Fever Ray - Plunge [FLAC] [CD] {RABID061}\ 02 - Mustn't Hurry.wav
     Peak level 98.3 %
     Extraction speed 1.2 X
     Track quality 100.0 %
     Test CRC 0386D752
     Copy CRC 0386D752
     Track not present in AccurateRip database
     Copy OK
Track  3
     Filename C:\EAC Rips\Fever Ray - Plunge [FLAC] [CD] {RABID061}\ 03 - A Part of Us.wav
     Peak level 98.9 %
     Extraction speed 1.3 X
     Track quality 100.0 %
     Test CRC C8B14391
     Copy CRC C8B14391
     Track not present in AccurateRip database
     Copy OK
Track  4
     Filename C:\EAC Rips\Fever Ray - Plunge [FLAC] [CD] {RABID061}\ 04 - Falling.wav
     Peak level 98.8 %
     Extraction speed 1.5 X
     Track quality 100.0 %
     Test CRC 4511E605
     Copy CRC 4511E605
     Track not present in AccurateRip database
     Copy OK
Track  5
     Filename C:\EAC Rips\Fever Ray - Plunge [FLAC] [CD] {RABID061}\ 05 - IDK About You.wav
     Peak level 98.8 %
     Extraction speed 1.6 X
     Track quality 100.0 %
     Test CRC EBCA5761
     Copy CRC EBCA5761
     Track not present in AccurateRip database
     Copy OK
Track  6
     Filename C:\EAC Rips\Fever Ray - Plunge [FLAC] [CD] {RABID061}\ 06 - This Country.wav
     Peak level 99.1 %
     Extraction speed 1.6 X
     Track quality 100.0 %
     Test CRC E44F335D
     Copy CRC E44F335D
     Track not present in AccurateRip database
     Copy OK
Track  7
     Filename C:\EAC Rips\Fever Ray - Plunge [FLAC] [CD] {RABID061}\ 07 - Plunge.wav
     Peak level 98.9 %
     Extraction speed 1.8 X
     Track quality 100.0 %
     Test CRC 06D1E5E8
     Copy CRC 06D1E5E8
     Track not present in AccurateRip database
     Copy OK
Track  8
     Filename C:\EAC Rips\Fever Ray - Plunge [FLAC] [CD] {RABID061}\ 08 - To the Moon and Back.wav
     Peak level 98.8 %
     Extraction speed 1.9 X
     Track quality 100.0 %
     Test CRC 02D1BC60
     Copy CRC 02D1BC60
     Track not present in AccurateRip database
     Copy OK
Track  9
     Filename C:\EAC Rips\Fever Ray - Plunge [FLAC] [CD] {RABID061}\ 09 - Red Trails.wav
     Peak level 98.8 %
     Extraction speed 2.0 X
     Track quality 100.0 %
     Test CRC 6BB4FD61
     Copy CRC 6BB4FD61
     Track not present in AccurateRip database
     Copy OK
Track 10
     Filename C:\EAC Rips\Fever Ray - Plunge [FLAC] [CD] {RABID061}\ 10 - An Itch.wav
     Peak level 98.8 %
     Extraction speed 2.0 X
     Track quality 100.0 %
     Test CRC CEFCC91E
     Copy CRC CEFCC91E
     Track not present in AccurateRip database
     Copy OK
Track 11
     Filename C:\EAC Rips\Fever Ray - Plunge [FLAC] [CD] {RABID061}\ 11 - Mama's Hand.wav
     Peak level 98.8 %
     Extraction speed 2.2 X
     Track quality 100.0 %
     Test CRC 794BF816
     Copy CRC 794BF816
     Track not present in AccurateRip database
     Copy OK
None of the tracks are present in the AccurateRip database
No errors occurred
End of status report
---- CUETools DB Plugin V2.1.6
[CTDB TOCID: Kxm_HryE.vAllde0Jrx7_qF8Pvk-] found
Submit result: Kxm_HryE.vAllde0Jrx7_qF8Pvk- has been confirmed
Track | CTDB Status
  1   | (3/3) Accurately ripped
  2   | (3/3) Accurately ripped
  3   | (3/3) Accurately ripped
  4   | (3/3) Accurately ripped
  5   | (3/3) Accurately ripped
  6   | (3/3) Accurately ripped
  7   | (3/3) Accurately ripped
  8   | (3/3) Accurately ripped
  9   | (3/3) Accurately ripped
 10   | (3/3) Accurately ripped
 11   | (3/3) Accurately ripped
==== Log checksum A39E33A8682BC00F709296C71B54BF48CF4F085295C9F5BDBAE16938E1C9AD6B ====
Код:
REM GENRE Electropop
REM DATE 2017
REM DISCID 830B060B
REM COMMENT "ExactAudioCopy v1.3"
PERFORMER "Fever Ray"
TITLE "Plunge"
FILE "01. Wanna Sip.wav" WAVE
  TRACK 01 AUDIO
    TITLE "Wanna Sip"
    PERFORMER "Fever Ray"
    ISRC SEWCE1700001
    FLAGS DCP
    INDEX 01 00:00:00
FILE "02. Mustn't Hurry.wav" WAVE
  TRACK 02 AUDIO
    TITLE "Mustn't Hurry"
    PERFORMER "Fever Ray"
    ISRC SEWCE1700002
    FLAGS DCP
    INDEX 01 00:00:00
FILE "03. A Part of Us.wav" WAVE
  TRACK 03 AUDIO
    TITLE "A Part of Us"
    PERFORMER "Fever Ray"
    ISRC SEWCE1700003
    FLAGS DCP
    INDEX 01 00:00:00
FILE "04. Falling.wav" WAVE
  TRACK 04 AUDIO
    TITLE "Falling"
    PERFORMER "Fever Ray"
    ISRC SEWCE1700004
    FLAGS DCP
    INDEX 01 00:00:00
FILE "05. IDK About You.wav" WAVE
  TRACK 05 AUDIO
    TITLE "IDK About You"
    PERFORMER "Fever Ray"
    ISRC SEWCE1700005
    FLAGS DCP
    INDEX 01 00:00:00
FILE "06. This Country.wav" WAVE
  TRACK 06 AUDIO
    TITLE "This Country"
    PERFORMER "Fever Ray"
    ISRC SEWCE1700006
    FLAGS DCP
    INDEX 01 00:00:00
FILE "07. Plunge.wav" WAVE
  TRACK 07 AUDIO
    TITLE "Plunge"
    PERFORMER "Fever Ray"
    ISRC SEWCE1700007
    FLAGS DCP
    INDEX 01 00:00:00
FILE "08. To the Moon and Back.wav" WAVE
  TRACK 08 AUDIO
    TITLE "To the Moon and Back"
    PERFORMER "Fever Ray"
    ISRC SEWCE1700008
    FLAGS DCP
    INDEX 01 00:00:00
FILE "09. Red Trails.wav" WAVE
  TRACK 09 AUDIO
    TITLE "Red Trails"
    PERFORMER "Fever Ray"
    ISRC SEWCE1700009
    FLAGS DCP
    INDEX 01 00:00:00
FILE "10. An Itch.wav" WAVE
  TRACK 10 AUDIO
    TITLE "An Itch"
    PERFORMER "Fever Ray"
    ISRC SEWCE1700010
    FLAGS DCP
    INDEX 01 00:00:00
FILE "11. Mama's Hand.wav" WAVE
  TRACK 11 AUDIO
    TITLE "Mama's Hand"
    PERFORMER "Fever Ray"
    ISRC SEWCE1700011
    FLAGS DCP
    INDEX 01 00:00:00
Правила, инструкции, FAQ!!!
Торрент  Добавлен [11 июл 2019, 11:58] Скачать торрент Магнет ссылка
Скачать торрент
[ Размер 11.87 КБ / Просмотров 5 ]

Статус
Проверен 
 
Размер  275.85 МБ
Приватный: Нет (DHT включён)
.torrent скачан  0
Как залить торрент? | Как скачать Torrent? | Ошибка в торренте? Качайте магнет  


     Отправить личное сообщение
   
Страница 1 из 1
Показать сообщения за:  Поле сортировки  
Начать новую тему Ответить на тему


Сейчас этот форум просматривают: нет зарегистрированных пользователей и гости: 0


Вы не можете начинать темы
Вы не можете отвечать на сообщения
Вы не можете редактировать свои сообщения
Вы не можете удалять свои сообщения
Вы не можете добавлять вложения

Перейти:  
Ресурс не предоставляет электронные версии произведений, а занимается лишь коллекционированием и каталогизацией ссылок, присылаемых и публикуемых на форуме нашими читателями. Если вы являетесь правообладателем какого-либо представленного материала и не желаете чтобы ссылка на него находилась в нашем каталоге, свяжитесь с нами и мы незамедлительно удалим её. Файлы для обмена на трекере предоставлены пользователями сайта, и администрация не несёт ответственности за их содержание. Просьба не заливать файлы, защищенные авторскими правами, а также файлы нелегального содержания!
cron