Начать новую тему Ответить на тему
Статистика раздачи
Размер: 142.06 МБ | Добавлен: 23 май 2019, 20:02 | Скачали: 0
Сидеров: 0  [0 байт/сек]    Личеров: 0  [0 байт/сек]
Пред. тема | След. тема 

Автор
Сообщение

СообщениеДобавлено: 23 май 2019, 20:02 

Ответить с цитатой 

Balibu – Let's Come Together (Holiday Shout)
Жанр: Electronic/Euro House
Страна-производитель диска: Germany
Год издания диска: 1997
Издатель (лейбл): EastWest
Номер по каталогу: 0630-19794-2
Аудиокодек: FLAC (*.flac)
Тип рипа: image+.cue
Битрейт аудио: lossless
Продолжительность: 19:00
Источник (релизер): Audio CD(My Rip)
Наличие сканов в содержимом раздачи: да
Треклист:
01. Let's Come Together (Radio Version) [0:03:28.33]
02. Let's Come Together (Extended Version) [0:05:44.56]
03. Let's Come Together (Club Remix) [0:06:21.10]
04. Let's Come Together (Karaoke Radio Version) [0:03:26.29]
Код:
EAC extraction logfile from 25. October 2011, 8:46
Balibu / Let's Come Together (Holiday Shout)
Used drive  : HL-DT-STDVDRAM GSA-T50N   Adapter: 1  ID: 0
Read mode               : Secure
Utilize accurate stream : Yes
Defeat audio cache      : Yes
Make use of C2 pointers : No
Read offset correction                      : 667
Overread into Lead-In and Lead-Out          : No
Fill up missing offset samples with silence : Yes
Delete leading and trailing silent blocks   : No
Null samples used in CRC calculations       : Yes
Used interface                              : Native Win32 interface for Win NT & 2000
Used output format : Internal WAV Routines
Sample format      : 44.100 Hz; 16 Bit; Stereo
TOC of the extracted CD
     Track |   Start  |  Length  | Start sector | End sector
    ---------------------------------------------------------
        1  |  0:00.00 |  3:28.25 |         0    |    15624
        2  |  3:28.25 |  5:44.42 |     15625    |    41466
        3  |  9:12.67 |  6:21.08 |     41467    |    70049
        4  | 15:34.00 |  3:26.22 |     70050    |    85521
Range status and errors
Selected range
     Filename C:\Users\Fancy\Desktop\Balibu - Let's Come Together (Holiday Shout).wav
     Peak level 100.0 %
     Range quality 100.0 %
     Test CRC 63B02D67
     Copy CRC 63B02D67
     Copy OK
No errors occurred
AccurateRip summary
Track  1  cannot be verified as accurate (confidence 1)  [8F44AF3E], AccurateRip returned [FEB2DCF2]
Track  2  cannot be verified as accurate (confidence 1)  [80946747], AccurateRip returned [5F3A025F]
Track  3  cannot be verified as accurate (confidence 1)  [7DB60807], AccurateRip returned [F2D17849]
Track  4  cannot be verified as accurate (confidence 1)  [7B3416D1], AccurateRip returned [F30A1A0F]
No tracks could be verified as accurate
You may have a different pressing from the one(s) in the database
End of status report
Код:
REM DISCID 25047404
REM COMMENT "ExactAudioCopy v0.99pb5"
PERFORMER "Balibu"
TITLE "Let's Come Together (Holiday Shout)"
FILE "Balibu - Let's Come Together (Holiday Shout).flac" WAVE
  TRACK 01 AUDIO
    TITLE "Let's Come Together (Radio Version)"
    PERFORMER "Balibu"
    INDEX 01 00:00:00
  TRACK 02 AUDIO
    TITLE "Let's Come Together (Extended Version)"
    PERFORMER "Balibu"
    INDEX 01 03:28:25
  TRACK 03 AUDIO
    TITLE "Let's Come Together (Club Remix)"
    PERFORMER "Balibu"
    INDEX 01 09:12:67
  TRACK 04 AUDIO
    TITLE "Let's Come Together (Karaoke Radio Version)"
    PERFORMER "Balibu"
    INDEX 01 15:34:00
Код:
[url=https://fastpic.ru/view/27/2011/1025/4fe81f937ece6a65a4a04e3a17b88a50.jpg.html][img]http://i27.fastpic.ru/thumb/2011/1025/50/4fe81f937ece6a65a4a04e3a17b88a50.jpeg[/img][/url][url=https://fastpic.ru/view/32/2011/1025/801ef44f1e8bd304cbc90050ffddfaec.jpg.html][img]http://i32.fastpic.ru/thumb/2011/1025/ec/801ef44f1e8bd304cbc90050ffddfaec.jpeg[/img][/url][url=https://fastpic.ru/view/29/2011/1025/09e271d530a175ce6aae64add9beb265.jpg.html][img]http://i29.fastpic.ru/thumb/2011/1025/65/09e271d530a175ce6aae64add9beb265.jpeg[/img][/url]
Правила, инструкции, FAQ!!!
Торрент  Добавлен [23 май 2019, 20:02] Скачать торрент Магнет ссылка
Скачать торрент
[ Размер 12.08 КБ / Просмотров 6 ]

Статус
Проверен 
 
Размер  142.06 МБ
Приватный: Нет (DHT включён)
.torrent скачан  0
Как залить торрент? | Как скачать Torrent? | Ошибка в торренте? Качайте магнет  


     Отправить личное сообщение
   
Страница 1 из 1
Показать сообщения за:  Поле сортировки  
Начать новую тему Ответить на тему


Сейчас этот форум просматривают: нет зарегистрированных пользователей и гости: 0


Вы не можете начинать темы
Вы не можете отвечать на сообщения
Вы не можете редактировать свои сообщения
Вы не можете удалять свои сообщения
Вы не можете добавлять вложения

Перейти:  
Ресурс не предоставляет электронные версии произведений, а занимается лишь коллекционированием и каталогизацией ссылок, присылаемых и публикуемых на форуме нашими читателями. Если вы являетесь правообладателем какого-либо представленного материала и не желаете чтобы ссылка на него находилась в нашем каталоге, свяжитесь с нами и мы незамедлительно удалим её. Файлы для обмена на трекере предоставлены пользователями сайта, и администрация не несёт ответственности за их содержание. Просьба не заливать файлы, защищенные авторскими правами, а также файлы нелегального содержания!
cron