Начать новую тему Ответить на тему
Статистика раздачи
Размер: 1.93 ГБ | Добавлен: 24 дек 2017, 23:12 | Скачали: 17
Сидеров: 385  [0 байт/сек]    Личеров: 30  [0 байт/сек]
Пред. тема | След. тема 

Автор
Сообщение

СообщениеДобавлено: 24 дек 2017, 23:12 

Ответить с цитатой 

Дюнкерк / Dunkirk

«Событие, которое изменило мир»
7.458 / 10 8.30 / 10
Год выпуска: 2017
Страна: США
Жанр: Военный, драма, история
Продолжительность: 01:46:38
Перевод: Дублированный (Лицензия)
Оригинальная аудиодорожка: Есть
Cубтитры: Русские форсированные, Русские, Английские
Режиссёр: Кристофер Нолан
Сценарий: Кристофер Нолан
Продюсер: Джон Бернард, Эрвин Годшалк, Джэйк Майерс
Оператор: Хойте Ван Хойтема
Композитор: Ханс Циммер
Художник: Нэйтан Краули, Тоби Бриттон, Оливер Гудье
Монтаж: Ли Смит
В ролях: Финн Уайтхед, Том Глинн-Карни, Джек Лауден, Гарри Стайлс, Анайрин Барнард, Джеймс Д’Арси, Барри Кеоган, Кеннет Брана, Киллиан Мёрфи, Марк Райлэнс
Бюджет: $100 000 000
Сборы в США: $188 045 546
Сборы в мире: + $337 000 000 = $525 045 546
Сборы в России: $5 475 442
Мировая премьера: 13 июля 2017
Премьера (РФ): 20 июля 2017, «Каро-Премьер»
Цифровой релиз: 13 декабря 2017, «Warner Bros.»
Описание: Фильм расскажет историю чудесного спасения более трехсот тысяч солдат в ходе Дюнкеркской операции, имевшей место в начале Второй мировой войны. События начинаются с окружения сотен тысяч британских и союзных войск силами противника. Пойманные в ловушку на пляже, и находясь спиной к морю, они сталкиваются лицом к лицу с неразрешимой ситуацией, тем временем как тиски противника сжимаются все сильнее и сильнее.
Качество исходника: Blu-Ray
Качество: BDRip
Тип: SD (576p)
Контейнер: M4V
Видео: H.264, 1024x576, 16:9, 2 200 Kbps, 23.976 fps
Аудио 1: Русский/Дублированный (Лицензия), AAC / 2.0 / 128 Kbps / 48.0 KHz
Аудио 2: Английский/Оригинальная дорожка , AAC / 2.0 / 128 Kbps / 48.0 KHz
Аудио 3: Украинский/Дублированный , AAC / 2.0 / 128 Kbps / 48.0 KHz
Субтитры 1: Русские форсированные
Субтитры 2: Русские полные
Субтитры 3: Английские полные


Код:
Код:
Sort Name: Dunkirk
XID: Apple:vendor_id:2017-931677
contentID: 1300354540
Copyright: © 2017 Warner Bros. Entertainment Inc. All Rights Reserved.
Screenwriters: Кристофер Нолан
Producers: Джон Бернард, Эрвин Годшалк, Джэйк Майерс
Director: Кристофер Нолан
Cast: Финн Уайтхед, Том Глинн-Карни, Джек Лауден, Гарри Стайлс, Анайрин Барнард, Джеймс Д’Арси, Барри Кеоган, Кеннет Брана, Киллиан Мёрфи, Марк Райлэнс
Studio: Warner Bros.
Rating Annotation: Rated PG-13 for intense war experience and some language.
Rating: 4
Long Description: Фильм расскажет историю чудесного спасения более трехсот тысяч солдат в ходе Дюнкеркской операции, имевшей место в начале Второй мировой войны. События начинаются с окружения сотен тысяч британских и союзных войск силами противника. Пойманные в ловушку на пляже, и находясь спиной к морю, они сталкиваются лицом к лицу с неразрешимой ситуацией, тем временем как тиски противника сжимаются все сильнее и сильнее.
Description: Фильм расскажет историю чудесного спасения более трехсот тысяч солдат в ходе Дюнкеркской операции, имевшей место в начале Второй мировой войны...
Release Date: 2017-07-13T08:00:00Z
Genre: Action & Adventure
Artist: Christopher Nolan
Name: Dunkirk (2017)

Код:
Код:
General
Complete name : /Users/imac/HandBrake/Dunkirk.(576p).(pk).m4v
Format : MPEG-4
Codec ID : M4V
File size : 1.93 GiB
Duration : 1h 46mn
Overall bit rate mode : Variable
Overall bit rate : 2 591 Kbps
Movie name : Dunkirk (2017)
Performer : Christopher Nolan
Director : Кристофер Нолан
Actor : Финн Уайтхед / Том Глинн-Карни / Джек Лауден / Гарри Стайлс / Анайрин Барнард / Джеймс Д’Арси / Барри Кеоган / Кеннет Брана / Киллиан Мёрфи / Марк Райлэнс
Screenplay by : Кристофер Нолан
Producer : Джон Бернард / Эрвин Годшалк / Джэйк Майерс
Production studio : Warner Bros.
Genre : Action & Adventure
ContentType : Short Film
Description : Фильм расскажет историю чудесного спасения более трехсот тысяч солдат в ходе Дюнкеркской операции, имевшей место в начале Второй мировой войны...
Recorded date : UTC 2017-07-13 08:00:00
Encoded date : UTC 2017-12-19 09:25:32
Tagged date : UTC 2017-12-19 09:26:57
Copyright : © 2017 Warner Bros. Entertainment Inc. All Rights Reserved.
Cover : Yes
Rating : None
Title/Sort : Dunkirk
LongDescription : Фильм расскажет историю чудесного спасения более трехсот тысяч солдат в ходе Дюнкеркской операции, имевшей место в начале Второй мировой войны. События начинаются с окружения сотен тысяч британских и союзных войск силами противника. Пойманные в ловушку на пляже, и находясь спиной к морю, они сталкиваются лицом к лицу с неразрешимой ситуацией, тем временем как тиски противника сжимаются все сильнее и сильнее.
AppleStoreCatalogID : 1300354540
Vendor : Apple:vendor_id:2017-931677
ContentRating : mpaa|PG-13|300|Rated PG-13 for intense war experience and some language.
Video #1
ID : 1
Format : AVC
Format/Info : Advanced Video Codec
Format profile : High@L4
Format settings, CABAC : Yes
Format settings, ReFrames : 9 frames
Codec ID : avc1
Codec ID/Info : Advanced Video Coding
Duration : 1h 46mn
Source duration : 1h 46mn
Bit rate : 2 200 Kbps
Width : 1 024 pixels
Height : 576 pixels
Display aspect ratio : 16:9
Frame rate mode : Variable
Frame rate : 23.976 fps
Minimum frame rate : 23.974 fps
Maximum frame rate : 23.981 fps
Color space : YUV
Chroma subsampling : 4:2:0
Bit depth : 8 bits
Scan type : Progressive
Bits/(Pixel*Frame) : 0.156
Stream size : 1.64 GiB (85%)
Source stream size : 1.64 GiB (85%)
Title : Main Program
Writing library : x264 core 148 r2708 86b7198
Encoding settings : cabac=1 / ref=9 / deblock=1:0:0 / analyse=0x3:0x113 / me=umh / subme=9 / psy=1 / psy_rd=1.00:0.00 / mixed_ref=1 / me_range=32 / chroma_me=1 / trellis=1 / 8x8dct=1 / cqm=0 / deadzone=21,11 / fast_pskip=1 / chroma_qp_offset=-2 / threads=18 / lookahead_threads=2 / sliced_threads=0 / nr=0 / decimate=1 / interlaced=0 / bluray_compat=0 / constrained_intra=0 / bframes=6 / b_pyramid=2 / b_adapt=2 / b_bias=0 / direct=1 / weightb=1 / open_gop=0 / weightp=2 / keyint=240 / keyint_min=24 / scenecut=40 / intra_refresh=0 / rc_lookahead=40 / rc=2pass / mbtree=1 / bitrate=2200 / ratetol=1.0 / qcomp=0.60 / qpmin=0 / qpmax=69 / qpstep=4 / cplxblur=20.0 / qblur=0.5 / ip_ratio=1.40 / aq=1:1.00
Language : English
Encoded date : UTC 2017-12-19 09:25:32
Tagged date : UTC 2017-12-19 09:25:36
Color range : Limited
Color primaries : BT.709
Transfer characteristics : BT.709
Matrix coefficients : BT.709
Video #2
ID : 9
Format : JPEG
Codec ID : jpeg
Duration : 1h 46mn
Bit rate mode : Variable
Bit rate : 1 049 bps
Width : 640 pixels
Height : 360 pixels
Display aspect ratio : 16:9
Frame rate mode : Variable
Frame rate : 0.003 fps
Minimum frame rate : 0.001 fps
Maximum frame rate : 0.007 fps
Color space : YUV
Chroma subsampling : 4:2:0
Bit depth : 8 bits
Compression mode : Lossy
Bits/(Pixel*Frame) : 1.518
Stream size : 854 KiB (0%)
Title : Chapter Images
Language : English
Encoded date : UTC 2017-12-19 09:25:44
Tagged date : UTC 2017-12-19 09:25:44
Audio #1
ID : 2
Format : AAC
Format/Info : Advanced Audio Codec
Format profile : LC
Codec ID : 40
Duration : 1h 46mn
Source duration : 1h 46mn
Bit rate mode : Variable
Bit rate : 128 Kbps
Maximum bit rate : 197 Kbps
Channel(s) : 2 channels
Channel positions : Front: L R
Sampling rate : 48.0 KHz
Compression mode : Lossy
Stream size : 97.4 MiB (5%)
Source stream size : 97.4 MiB (5%)
Title : Russian Stereo
Language : Russian
Encoded date : UTC 2017-12-19 09:25:32
Tagged date : UTC 2017-12-19 09:25:39
Audio #2
ID : 3
Format : AAC
Format/Info : Advanced Audio Codec
Format profile : LC
Codec ID : 40
Duration : 1h 46mn
Source duration : 1h 46mn
Bit rate mode : Variable
Bit rate : 128 Kbps
Maximum bit rate : 195 Kbps
Channel(s) : 2 channels
Channel positions : Front: L R
Sampling rate : 48.0 KHz
Compression mode : Lossy
Stream size : 97.7 MiB (5%)
Source stream size : 97.7 MiB (5%)
Title : English Stereo
Language : English
Encoded date : UTC 2017-12-19 09:25:32
Tagged date : UTC 2017-12-19 09:25:39
Audio #3
ID : 4
Format : AAC
Format/Info : Advanced Audio Codec
Format profile : LC
Codec ID : 40
Duration : 1h 46mn
Source duration : 1h 46mn
Bit rate mode : Variable
Bit rate : 125 Kbps
Maximum bit rate : 179 Kbps
Channel(s) : 2 channels
Channel positions : Front: L R
Sampling rate : 48.0 KHz
Compression mode : Lossy
Stream size : 95.4 MiB (5%)
Source stream size : 95.4 MiB (5%)
Title : Ukrainian Stereo
Language : Ukrainian
Encoded date : UTC 2017-12-19 09:25:32
Tagged date : UTC 2017-12-19 09:25:39
Text #1
ID : 5
Format : Timed Text
Muxing mode : sbtl
Codec ID : tx3g
Duration : 1h 46mn
Bit rate mode : Variable
Bit rate : 2 bps
Stream size : 1.60 KiB (0%)
Title : Russian forced
Language : Russian
Encoded date : UTC 2017-12-19 09:25:32
Tagged date : UTC 2017-12-19 09:25:33
Text #2
ID : 6
Format : Timed Text
Muxing mode : sbtl
Codec ID : tx3g
Duration : 1h 46mn
Bit rate mode : Variable
Bit rate : 36 bps
Stream size : 27.8 KiB (0%)
Title : Russian full
Language : Russian
Encoded date : UTC 2017-12-19 09:25:32
Tagged date : UTC 2017-12-19 09:25:33
Text #3
ID : 7
Format : Timed Text
Muxing mode : sbtl
Codec ID : tx3g
Duration : 1h 38mn
Bit rate mode : Variable
Bit rate : 33 bps
Stream size : 24.2 KiB (0%)
Title : English full
Language : English
Encoded date : UTC 2017-12-19 09:25:32
Tagged date : UTC 2017-12-19 09:25:33
Menu #1
00:00:00.000 : 00:00:00.000
00:03:06.103 : 00:03:06.103
00:07:58.019 : 00:07:57.977
00:11:12.881 : 00:11:12.839
00:16:15.766 : 00:16:15.766
00:20:07.581 : 00:20:07.498
00:24:08.072 : 00:24:07.988
00:28:57.152 : 00:28:57.069
00:32:55.390 : 00:32:55.348
00:39:01.840 : 00:39:01.839
00:42:44.187 : 00:42:44.187
00:46:47.263 : 00:46:47.179
00:50:55.719 : 00:50:55.636
00:56:12.119 : 00:56:12.077
01:00:02.307 : 01:00:02.265
01:05:41.229 : 01:05:41.229
01:10:14.544 : 01:10:14.544
01:14:33.803 : 01:14:33.761
01:19:29.723 : 01:19:29.723
01:21:57.037 : 01:21:56.995
Menu #2
ID : 8
Codec ID : text
Duration : 1h 46mn
Language : English
Encoded date : UTC 2017-12-19 09:25:39
Tagged date : UTC 2017-12-19 09:25:39
Bit rate mode : CBR
00:00:00.000 : 00:00:00.000
00:03:06.103 : 00:03:06.103
00:07:58.019 : 00:07:57.977
00:11:12.881 : 00:11:12.839
00:16:15.766 : 00:16:15.766
00:20:07.581 : 00:20:07.498
00:24:08.072 : 00:24:07.988
00:28:57.152 : 00:28:57.069
00:32:55.390 : 00:32:55.348
00:39:01.840 : 00:39:01.839
00:42:44.187 : 00:42:44.187
00:46:47.263 : 00:46:47.179
00:50:55.719 : 00:50:55.636
00:56:12.119 : 00:56:12.077
01:00:02.307 : 01:00:02.265
01:05:41.229 : 01:05:41.229
01:10:14.544 : 01:10:14.544
01:14:33.803 : 01:14:33.761
01:19:29.723 : 01:19:29.723
01:21:57.037 : 01:21:56.995

Код:
Код:
x264 [info]: frame I:1263  Avg QP:14.82  size: 60011
x264 [info]: frame P:41220 Avg QP:18.57  size: 20491
x264 [info]: frame B:110922 Avg QP:20.52  size:  7554
x264 [info]: consecutive B-frames:  4.4%  5.5% 14.7% 31.8% 17.4% 20.4%  5.8%
x264 [info]: mb I  I16..4: 21.6% 56.9% 21.5%
x264 [info]: mb P  I16..4:  2.6% 10.8%  2.5%  P16..4: 36.3% 17.9% 10.9%  0.0%  0.0%    skip:19.0%
x264 [info]: mb B  I16..4:  0.2%  1.3%  0.5%  B16..8: 40.0%  8.1%  2.3%  direct: 3.7%  skip:43.9%  L0:45.4% L1:45.3% BI: 9.3%
x264 [info]: 8x8 transform intra:65.6% inter:75.3%
x264 [info]: coded y,uvDC,uvAC intra: 74.7% 72.4% 40.9% inter: 22.2% 18.8% 1.4%
x264 [info]: i16 v,h,dc,p: 27% 20%  8% 45%
x264 [info]: i8 v,h,dc,ddl,ddr,vr,hd,vl,hu:  6% 10%  5%  9% 15% 12% 17% 10% 15%
x264 [info]: i4 v,h,dc,ddl,ddr,vr,hd,vl,hu:  5% 10%  3%  9% 15% 12% 18% 10% 19%
x264 [info]: i8c dc,h,v,p: 35% 33% 16% 16%
x264 [info]: Weighted P-Frames: Y:5.6% UV:2.0%
x264 [info]: ref P L0: 52.9% 13.2% 13.0%  6.0%  4.3%  3.7%  2.9%  2.0%  1.8%  0.2%  0.0%
x264 [info]: ref B L0: 77.5%  9.8%  5.3%  2.5%  1.9%  1.5%  1.0%  0.4%
x264 [info]: ref B L1: 95.2%  4.8%
x264 [info]: kb/s:2198.50




Релиз подготовлен для просмотра на Apple TV, iPad, iPhone, iPod Touch.
Для просмотра данного релиза на компьютере с ОС Windows рекомендуется использовать VLC media player
Правила, инструкции, FAQ!!!
Торрент  Добавлен [24 дек 2017, 23:12] Скачать торрент Магнет ссылка
Скачать торрент
[ Размер 39.08 КБ / Просмотров 342 ]

Статус
Проверен 
 
Размер  1.93 ГБ
Приватный: Нет (DHT включён)
.torrent скачан  17
Как залить торрент? | Как скачать Torrent? | Ошибка в торренте? Качайте магнет  


     Отправить личное сообщение
   
Страница 1 из 1
Показать сообщения за:  Поле сортировки  
Начать новую тему Ответить на тему


Сейчас этот форум просматривают: нет зарегистрированных пользователей и гости: 1


Вы не можете начинать темы
Вы не можете отвечать на сообщения
Вы не можете редактировать свои сообщения
Вы не можете удалять свои сообщения
Вы не можете добавлять вложения

Перейти:  
Ресурс не предоставляет электронные версии произведений, а занимается лишь коллекционированием и каталогизацией ссылок, присылаемых и публикуемых на форуме нашими читателями. Если вы являетесь правообладателем какого-либо представленного материала и не желаете чтобы ссылка на него находилась в нашем каталоге, свяжитесь с нами и мы незамедлительно удалим её. Файлы для обмена на трекере предоставлены пользователями сайта, и администрация не несёт ответственности за их содержание. Просьба не заливать файлы, защищенные авторскими правами, а также файлы нелегального содержания!