Начать новую тему Ответить на тему
Статистика раздачи
Размер: 406.68 МБ | Добавлен: 09 апр 2019, 12:25 | Скачали: 1
Сидеров: 3  [0 байт/сек]    Личеров: 1  [0 байт/сек]
Пред. тема | След. тема 

Автор
Сообщение

СообщениеДобавлено: 09 апр 2019, 12:25 

Ответить с цитатой 

Kermit Ruffins - The Barbecue Swingers Live
Жанр: Dixieland
Носитель: CD
Год издания: 1998
Издатель (лейбл): Basin Street Records
Номер по каталогу: BSR 0101-2
Аудиокодек: FLAC (*.flac)
Тип рипа: tracks+.cue
Битрейт аудио: lossless
Продолжительность: 70:53
Источник (релизер): What.cd (djricochet99)
Наличие сканов в содержимом раздачи: нет
Треклист:
01. Introduction (0:32)
02. Chicken And Dumplings (7:02)
03. Interlude (0:17)
04. Smokin' With Some Barbecue (5:11)
05. St. James Infirmary (8:08)
06. Interlude (0:21)
07. Just Showin' Off (7:07)
08. What Is New Orleans? (8:26)
09. Do The Fat Tuesday (7:28)
10. Peep This Groove Out (5:21)
11. Killing Me Softly With His Song (10:23)
12. Do Whatcha Wanna (7:33)
13. The Star Spangled Banner (3:05)
 
Код:
Exact Audio Copy V1.0 beta 3 from 29. August 2011
EAC extraction logfile from 14. July 2012, 16:11
Kermit Ruffins / The Barbecue Swingers Live
Used drive  : PLEXTOR DVDR   PX-L890SA   Adapter: 0  ID: 1
Read mode               : Secure
Utilize accurate stream : Yes
Defeat audio cache      : Yes
Make use of C2 pointers : No
Read offset correction                      : 6
Overread into Lead-In and Lead-Out          : No
Fill up missing offset samples with silence : Yes
Delete leading and trailing silent blocks   : No
Null samples used in CRC calculations       : Yes
Used interface                              : Native Win32 interface for Win NT & 2000
Gap handling                                : Appended to previous track
Used output format              : User Defined Encoder
Selected bitrate                : 256 kBit/s
Quality                         : High
Add ID3 tag                     : No
Command line compressor         : C:\Program Files (x86)\Exact Audio Copy\Flac\flac.exe
Additional command line options : -8 -V -T "ARTIST=%artist%" -T "TITLE=%title%" -T "ALBUM=%albumtitle%" -T "DATE=%year%" -T "TRACKNUMBER=%tracknr%" -T "TOTALTRACKS=%numtracks%" -T "GENRE=%genre%" -T "ALBUMARTIST=%albumartist%" -T "ALBUM ARTIST=%albumartist%" -T "COMMENT=EAC Secure Mode, Test & Copy, AccurateRip, FLAC -8" %source%
TOC of the extracted CD
     Track |   Start  |  Length  | Start sector | End sector
    ---------------------------------------------------------
        1  |  0:00.00 |  0:31.52 |         0    |     2376
        2  |  0:31.52 |  7:01.53 |      2377    |    34004
        3  |  7:33.30 |  0:17.15 |     34005    |    35294
        4  |  7:50.45 |  5:11.02 |     35295    |    58621
        5  | 13:01.47 |  8:08.05 |     58622    |    95226
        6  | 21:09.52 |  0:20.40 |     95227    |    96766
        7  | 21:30.17 |  7:07.08 |     96767    |   128799
        8  | 28:37.25 |  8:25.62 |    128800    |   166736
        9  | 37:03.12 |  7:27.38 |    166737    |   200299
       10  | 44:30.50 |  5:20.45 |    200300    |   224344
       11  | 49:51.20 | 10:23.00 |    224345    |   271069
       12  | 60:14.20 |  7:33.22 |    271070    |   305066
       13  | 67:47.42 |  3:05.25 |    305067    |   318966
Track  1
     Filename M:\RICOCHET\Documents\CD Archive 4\Kermit Ruffins - The Barbecue Swingers Live\01 - Introduction.wav
     Pre-gap length  0:00:02.00
     Peak level 72.0 %
     Extraction speed 1.7 X
     Track quality 100.0 %
     Test CRC 2F5E981D
     Copy CRC 2F5E981D
     Cannot be verified as accurate (confidence 4)  [12612EE0], AccurateRip returned [6EA57EB8]  (AR v2)
     Copy OK
Track  2
     Filename M:\RICOCHET\Documents\CD Archive 4\Kermit Ruffins - The Barbecue Swingers Live\02 - Chicken And Dumplings.wav
     Peak level 97.9 %
     Extraction speed 4.1 X
     Track quality 100.0 %
     Test CRC 004F5A70
     Copy CRC 004F5A70
     Cannot be verified as accurate (confidence 4)  [BD77F252], AccurateRip returned [C077A956]  (AR v2)
     Copy OK
Track  3
     Filename M:\RICOCHET\Documents\CD Archive 4\Kermit Ruffins - The Barbecue Swingers Live\03 - Interlude.wav
     Peak level 81.4 %
     Extraction speed 1.4 X
     Track quality 100.0 %
     Test CRC CB1A1B89
     Copy CRC CB1A1B89
     Cannot be verified as accurate (confidence 4)  [7D841816], AccurateRip returned [718A56D1]  (AR v2)
     Copy OK
Track  4
     Filename M:\RICOCHET\Documents\CD Archive 4\Kermit Ruffins - The Barbecue Swingers Live\04 - Smokin' With Some Barbecue.wav
     Peak level 97.9 %
     Extraction speed 4.5 X
     Track quality 100.0 %
     Test CRC 33764A25
     Copy CRC 33764A25
     Cannot be verified as accurate (confidence 4)  [1281A1AD], AccurateRip returned [A5748A82]  (AR v2)
     Copy OK
Track  5
     Filename M:\RICOCHET\Documents\CD Archive 4\Kermit Ruffins - The Barbecue Swingers Live\05 - St. James Infirmanry.wav
     Peak level 97.7 %
     Extraction speed 5.2 X
     Track quality 100.0 %
     Test CRC B8296080
     Copy CRC B8296080
     Cannot be verified as accurate (confidence 4)  [17583F55], AccurateRip returned [7748E569]  (AR v2)
     Copy OK
Track  6
     Filename M:\RICOCHET\Documents\CD Archive 4\Kermit Ruffins - The Barbecue Swingers Live\06 - Interlude.wav
     Peak level 82.6 %
     Extraction speed 0.9 X
     Track quality 99.4 %
     Test CRC F5247E6E
     Copy CRC F5247E6E
     Cannot be verified as accurate (confidence 4)  [881A414B], AccurateRip returned [80EBE065]  (AR v2)
     Copy OK
Track  7
     Filename M:\RICOCHET\Documents\CD Archive 4\Kermit Ruffins - The Barbecue Swingers Live\07 - Just Showin' Off.wav
     Peak level 87.3 %
     Extraction speed 5.7 X
     Track quality 100.0 %
     Test CRC 7C7AB42C
     Copy CRC 7C7AB42C
     Cannot be verified as accurate (confidence 4)  [22D27498], AccurateRip returned [61F165C0]  (AR v2)
     Copy OK
Track  8
     Filename M:\RICOCHET\Documents\CD Archive 4\Kermit Ruffins - The Barbecue Swingers Live\08 - What Is New Orleans.wav
     Peak level 97.9 %
     Extraction speed 6.2 X
     Track quality 100.0 %
     Test CRC 4D7CF792
     Copy CRC 4D7CF792
     Cannot be verified as accurate (confidence 4)  [174B5797], AccurateRip returned [D0E0E9A8]  (AR v2)
     Copy OK
Track  9
     Filename M:\RICOCHET\Documents\CD Archive 4\Kermit Ruffins - The Barbecue Swingers Live\09 - Do The Fat Tuesday.wav
     Peak level 97.9 %
     Extraction speed 5.8 X
     Track quality 99.9 %
     Test CRC 4B5F58E3
     Copy CRC 4B5F58E3
     Cannot be verified as accurate (confidence 4)  [D47DFE84], AccurateRip returned [CF441E06]  (AR v2)
     Copy OK
Track 10
     Filename M:\RICOCHET\Documents\CD Archive 4\Kermit Ruffins - The Barbecue Swingers Live\10 - Peep This Groove Out.wav
     Peak level 97.9 %
     Extraction speed 6.7 X
     Track quality 100.0 %
     Test CRC 65363CA9
     Copy CRC 65363CA9
     Cannot be verified as accurate (confidence 4)  [A5B14A2E], AccurateRip returned [2EEB8C07]  (AR v2)
     Copy OK
Track 11
     Filename M:\RICOCHET\Documents\CD Archive 4\Kermit Ruffins - The Barbecue Swingers Live\11 - Killing Me Softly With His Song.wav
     Peak level 98.8 %
     Extraction speed 7.5 X
     Track quality 100.0 %
     Test CRC FF7D6CBC
     Copy CRC FF7D6CBC
     Cannot be verified as accurate (confidence 4)  [0B6A7B84], AccurateRip returned [D53E2595]  (AR v2)
     Copy OK
Track 12
     Filename M:\RICOCHET\Documents\CD Archive 4\Kermit Ruffins - The Barbecue Swingers Live\12 - Do Whatcha Wanna.wav
     Peak level 97.9 %
     Extraction speed 7.7 X
     Track quality 100.0 %
     Test CRC 3B237558
     Copy CRC 3B237558
     Cannot be verified as accurate (confidence 4)  [DA1F24BC], AccurateRip returned [D4814DD4]  (AR v2)
     Copy OK
Track 13
     Filename M:\RICOCHET\Documents\CD Archive 4\Kermit Ruffins - The Barbecue Swingers Live\13 - The Star Spangled Banner.wav
     Peak level 86.8 %
     Extraction speed 7.2 X
     Track quality 100.0 %
     Test CRC 9F576E2E
     Copy CRC 9F576E2E
     Cannot be verified as accurate (confidence 4)  [111BEF77], AccurateRip returned [6E886C6A]  (AR v2)
     Copy OK
No tracks could be verified as accurate
You may have a different pressing from the one(s) in the database
No errors occurred
End of status report
==== Log checksum 612C972199AB453568633A4B95FA2B99AA4295542DAEFF931BFE37324E763855 ====
Код:
REM GENRE Jazz
REM DATE 1998
REM DISCID B6109C0D
REM COMMENT "ExactAudioCopy v1.0b3"
PERFORMER "Kermit Ruffins"
TITLE "The Barbecue Swingers Live"
FILE "01. Introduction.flac" WAVE
  TRACK 01 AUDIO
    TITLE "Introduction"
    PERFORMER "Kermit Ruffins"
    INDEX 01 00:00:00
FILE "02. Chicken And Dumplings.flac" WAVE
  TRACK 02 AUDIO
    TITLE "Chicken And Dumplings"
    PERFORMER "Kermit Ruffins"
    INDEX 01 00:00:00
FILE "03. Interlude.flac" WAVE
  TRACK 03 AUDIO
    TITLE "Interlude"
    PERFORMER "Kermit Ruffins"
    INDEX 01 00:00:00
FILE "04. Smokin' With Some Barbecue.flac" WAVE
  TRACK 04 AUDIO
    TITLE "Smokin' With Some Barbecue"
    PERFORMER "Kermit Ruffins"
    INDEX 01 00:00:00
FILE "05. St. James Infirmary.flac" WAVE
  TRACK 05 AUDIO
    TITLE "St. James Infirmary"
    PERFORMER "Kermit Ruffins"
    INDEX 01 00:00:00
FILE "06. Interlude.flac" WAVE
  TRACK 06 AUDIO
    TITLE "Interlude"
    PERFORMER "Kermit Ruffins"
    INDEX 01 00:00:00
FILE "07. Just Showin' Off.flac" WAVE
  TRACK 07 AUDIO
    TITLE "Just Showin' Off"
    PERFORMER "Kermit Ruffins"
    INDEX 01 00:00:00
FILE "08. What Is New Orleans.flac" WAVE
  TRACK 08 AUDIO
    TITLE "What Is New Orleans?"
    PERFORMER "Kermit Ruffins"
    INDEX 01 00:00:00
FILE "09. Do The Fat Tuesday.flac" WAVE
  TRACK 09 AUDIO
    TITLE "Do The Fat Tuesday"
    PERFORMER "Kermit Ruffins"
    INDEX 01 00:00:00
FILE "10. Peep This Groove Out.flac" WAVE
  TRACK 10 AUDIO
    TITLE "Peep This Groove Out"
    PERFORMER "Kermit Ruffins"
    INDEX 01 00:00:00
FILE "11. Killing Me Softly With His Song.flac" WAVE
  TRACK 11 AUDIO
    TITLE "Killing Me Softly With His Song"
    PERFORMER "Kermit Ruffins"
    INDEX 01 00:00:00
FILE "12. Do Whatcha Wanna.flac" WAVE
  TRACK 12 AUDIO
    TITLE "Do Whatcha Wanna"
    PERFORMER "Kermit Ruffins"
    INDEX 01 00:00:00
FILE "13. The Star Spangled Banner.flac" WAVE
  TRACK 13 AUDIO
    TITLE "The Star Spangled Banner"
    PERFORMER "Kermit Ruffins"
    INDEX 01 00:00:00
Правила, инструкции, FAQ!!!
Торрент  Добавлен [09 апр 2019, 12:25] Скачать торрент Магнет ссылка
Скачать торрент
[ Размер 17.38 КБ / Просмотров 8 ]

Статус
Проверен 
 
Размер  406.68 МБ
Приватный: Нет (DHT включён)
.torrent скачан  1
Как залить торрент? | Как скачать Torrent? | Ошибка в торренте? Качайте магнет  


     Отправить личное сообщение
   
Страница 1 из 1
Показать сообщения за:  Поле сортировки  
Начать новую тему Ответить на тему


Сейчас этот форум просматривают: нет зарегистрированных пользователей и гости: 0


Вы не можете начинать темы
Вы не можете отвечать на сообщения
Вы не можете редактировать свои сообщения
Вы не можете удалять свои сообщения
Вы не можете добавлять вложения

Перейти:  
Ресурс не предоставляет электронные версии произведений, а занимается лишь коллекционированием и каталогизацией ссылок, присылаемых и публикуемых на форуме нашими читателями. Если вы являетесь правообладателем какого-либо представленного материала и не желаете чтобы ссылка на него находилась в нашем каталоге, свяжитесь с нами и мы незамедлительно удалим её. Файлы для обмена на трекере предоставлены пользователями сайта, и администрация не несёт ответственности за их содержание. Просьба не заливать файлы, защищенные авторскими правами, а также файлы нелегального содержания!
cron