Начать новую тему Ответить на тему
Статистика раздачи
Размер: 33.62 ГБ | Добавлен: 10 сен 2019, 23:25 | Скачали: 0
Сидеров: 0  [0 байт/сек]    Личеров: 0  [0 байт/сек]
Пред. тема | След. тема 

Автор
Сообщение

СообщениеДобавлено: 10 сен 2019, 23:25 

Ответить с цитатой 

Weil du nur einmal lebst – Die Toten Hosen auf Tour
Жанр: Punk rock, Documentary
Продолжительность: 01:47:10 + 00:16:46 (бонусы)
Год выпуска: 2019
Чаптеры:
1. Start
2. Essen
3. Dresden
4. Berlin: Konzertabsage
5. Böse überrraschung: Hörsturz
6. Stuttgart
7. Luzern
8. Berlin II
9. Gräfenhainichen
10. Chemnitz: #Wirsindmehr
11. Berlin: S036
12. Tourfinale Düsseldorf
13. Die Toten Hosenin Argentien
14. Mendoza
15. You"ll never walk alone
Бонуc
Zu besuch bei der wim wenders ausstellung "Sofort builder" [00:02:12]
Heiliger raisen [00:01:16]
Zeugen des anfgans: Klassentreffen in Buenos Aires [00:02:07]
American tatoo in Buenos Aires [00:02:35]
Freunde des hauses [00:08:36]
Качество: Blu-ray
Разрешение видео/развертка: 1080i
Контейнер: BDMV
Видео кодек: H.264
Аудио кодек: AC3, DTS
Видео: MPEG-4 AVC Video / 27682 kbps / 1080i / 25 fps / 16:9 / High Profile 4.1
Аудио#1: German / Dolby TrueHD/Atmos Audio / 7.1 / 48 kHz / 4323 kbps / 24-bit (AC3 Embedded: 5.1-EX / 48 kHz / 640 kbps / DN -31dB)
Аудио#2: German / DTS-HD Master Audio / 5.1 / 48 kHz / 3462 kbps / 24-bit (DTS Core: 5.1 / 48 kHz / 1509 kbps / 24-bit)
Аудио#3: German / DTS-HD Master Audio / 2.0 / 48 kHz / 2091 kbps / 24-bit (DTS Core: 2.0 / 48 kHz / 1509 kbps / 24-bit)
Субтитры: English, Spanish, German
Код:
Disc Title:     Die Toten Hosen - Weil du nur einmal lebst
Disc Label:     Die Toten Hosen - Tour 2018 2019 1080i Blu-ray AVC TrueHD 7.1-MUSiC4DE
Disc Size:      36,098,724,710 bytes
Protection:     AACS
Extras:         50Hz Content
BDInfo:         0.7.5.5
Notes:
BDINFO HOME:
  Cinema Squid (old)
    [url=http://www.cinemasquid.com/blu-ray/tools/bdinfo]http://www.cinemasquid.com/blu-ray/tools/bdinfo[/url]
  UniqProject GitHub (new)
   [url=https://github.com/UniqProject/BDInfo]https://github.com/UniqProject/BDInfo[/url]
INCLUDES FORUMS REPORT FOR:
  AVS Forum Blu-ray Audio and Video Specifications Thread
    [url=http://www.avsforum.com/avs-vb/showthread.php?t=1155731]http://www.avsforum.com/avs-vb/showthread.php?t=1155731[/url]
********************
PLAYLIST: 00002.MPLS
********************
<--- BEGIN FORUMS PASTE --->
Код:
Код:
Total   Video
Title                                                           Codec   Length  Movie Size      Disc Size       Bitrate Bitrate Main Audio Track                          Secondary Audio Track
-----                                                           ------  ------- --------------  --------------  ------- ------- ------------------                        ---------------------
00002.MPLS                                                      AVC     1:47:10 33,396,664,320  36,098,724,710  41.54   27.68   Dolby Atmos 7.1 4963Kbps (48kHz/24-bit)   DTS-HD Master 5.1 3462Kbps (48kHz/24-bit)

Код:
Код:
DISC INFO:
Disc Title:     Die Toten Hosen - Weil du nur einmal lebst
Disc Label:     Die Toten Hosen - Tour 2018 2019 1080i Blu-ray AVC TrueHD 7.1-MUSiC4DE
Disc Size:      36,098,724,710 bytes
Protection:     AACS
Extras:         50Hz Content
BDInfo:         0.7.5.5
PLAYLIST REPORT:
Name:                   00002.MPLS
Length:                 1:47:10.960 (h:m:s.ms)
Size:                   33,396,664,320 bytes
Total Bitrate:          41.54 Mbps
VIDEO:
Codec                   Bitrate             Description
-----                   -------             -----------
MPEG-4 AVC Video        27682 kbps          1080i / 25 fps / 16:9 / High Profile 4.1
AUDIO:
Codec                           Language        Bitrate         Description
-----                           --------        -------         -----------
Dolby TrueHD/Atmos Audio        German          4963 kbps       7.1 / 48 kHz /  4323 kbps / 24-bit (AC3 Embedded: 5.1-EX / 48 kHz /   640 kbps / DN -31dB)
DTS-HD Master Audio             German          3462 kbps       5.1 / 48 kHz /  3462 kbps / 24-bit (DTS Core: 5.1 / 48 kHz /  1509 kbps / 24-bit)
DTS-HD Master Audio             German          2091 kbps       2.0 / 48 kHz /  2091 kbps / 24-bit (DTS Core: 2.0 / 48 kHz /  1509 kbps / 24-bit)
SUBTITLES:
Codec                           Language        Bitrate         Description
-----                           --------        -------         -----------
Presentation Graphics           English         39.593 kbps
Presentation Graphics           Spanish         39.342 kbps
Presentation Graphics           German          5.006 kbps
FILES:
Name            Time In         Length          Size            Total Bitrate
----            -------         ------          ----            -------------
00005.M2TS      0:00:00.000     1:47:10.960     33,396,664,320  41,545
CHAPTERS:
Number          Time In         Length          Avg Video Rate  Max 1-Sec Rate  Max 1-Sec Time  Max 5-Sec Rate  Max 5-Sec Time  Max 10Sec Rate  Max 10Sec Time  Avg Frame Size  Max Frame Size  Max Frame Time
------          -------         ------          --------------  --------------  --------------  --------------  --------------  --------------  --------------  --------------  --------------  --------------
1               0:00:00.000     0:04:18.240     26,084 kbps     39,814 kbps     00:03:11.360    32,192 kbps     00:03:11.159    30,988 kbps     00:03:11.320    130,399 bytes   638,610 bytes   00:03:41.080
2               0:04:18.240     0:12:38.879     27,342 kbps     41,027 kbps     00:05:27.640    32,403 kbps     00:13:03.680    31,118 kbps     00:04:26.680    136,709 bytes   857,588 bytes   00:10:02.079
3               0:16:57.119     0:11:08.760     28,141 kbps     40,995 kbps     00:22:52.320    32,225 kbps     00:17:12.600    30,947 kbps     00:24:38.960    140,703 bytes   638,925 bytes   00:18:25.119
4               0:28:05.880     0:00:43.319     26,507 kbps     40,439 kbps     00:28:14.119    31,622 kbps     00:28:08.400    30,679 kbps     00:28:08.720    132,534 bytes   886,433 bytes   00:28:15.119
5               0:28:49.200     0:09:07.480     27,687 kbps     41,019 kbps     00:32:48.000    32,299 kbps     00:35:34.440    31,005 kbps     00:32:59.720    138,433 bytes   769,139 bytes   00:33:00.200
6               0:37:56.680     0:09:34.920     28,652 kbps     41,895 kbps     00:42:47.239    32,230 kbps     00:40:33.920    30,955 kbps     00:40:34.040    143,260 bytes   748,630 bytes   00:40:20.160
7               0:47:31.600     0:06:25.599     26,958 kbps     41,986 kbps     00:52:57.040    31,979 kbps     00:48:34.360    30,917 kbps     00:52:54.040    134,790 bytes   669,775 bytes   00:47:33.520
8               0:53:57.200     0:09:28.800     27,144 kbps     41,287 kbps     00:56:24.880    32,163 kbps     00:56:24.760    31,173 kbps     00:58:20.480    135,719 bytes   711,656 bytes   00:53:59.120
9               1:03:26.000     0:08:01.680     28,344 kbps     41,346 kbps     01:07:22.760    32,062 kbps     01:10:43.520    31,024 kbps     01:07:18.080    141,720 bytes   785,070 bytes   01:11:18.080
10              1:11:27.680     0:04:24.799     25,838 kbps     39,634 kbps     01:11:59.800    31,873 kbps     01:14:41.840    31,151 kbps     01:12:32.800    129,191 bytes   616,009 bytes   01:12:41.600
11              1:15:52.479     0:06:19.960     28,415 kbps     40,911 kbps     01:15:52.479    31,906 kbps     01:19:32.520    30,875 kbps     01:16:05.480    142,077 bytes   778,259 bytes   01:15:56.320
12              1:22:12.439     0:07:00.120     29,559 kbps     42,404 kbps     01:26:46.200    32,408 kbps     01:27:17.000    31,073 kbps     01:27:17.000    147,795 bytes   743,404 bytes   01:22:19.160
13              1:29:12.560     0:03:35.039     27,761 kbps     41,055 kbps     01:31:16.920    32,016 kbps     01:29:27.880    30,912 kbps     01:32:10.400    138,807 bytes   738,470 bytes   01:29:54.479
14              1:32:47.600     0:06:48.839     29,001 kbps     40,419 kbps     01:37:59.680    31,885 kbps     01:37:59.800    30,909 kbps     01:37:12.360    145,004 bytes   616,760 bytes   01:35:27.720
15              1:39:36.439     0:04:36.360     29,744 kbps     39,511 kbps     01:41:52.960    31,810 kbps     01:43:07.880    30,854 kbps     01:41:55.480    148,720 bytes   579,874 bytes   01:40:37.000
16              1:44:12.800     0:02:58.159     18,810 kbps     34,240 kbps     01:46:42.760    31,129 kbps     01:46:01.439    30,623 kbps     01:46:01.439    94,091 bytes    422,564 bytes   01:46:11.120
STREAM DIAGNOSTICS:
File            PID             Type            Codec           Language                Seconds                 Bitrate                 Bytes           Packets
----            ---             ----            -----           --------                --------------          --------------          -------------   -----
00005.M2TS      4113 (0x1011)   0x1B            AVC                                     6430.880                27,683                  22,253,109,509  121,034,450
00005.M2TS      4352 (0x1100)   0x83            Atmos           deu (German)            6430.880                4,963                   3,989,366,696   26,075,243
00005.M2TS      4353 (0x1101)   0x86            DTS-HD MA       deu (German)            6430.880                3,462                   2,783,133,844   16,110,925
00005.M2TS      4354 (0x1102)   0x86            DTS-HD MA       deu (German)            6430.880                2,091                   1,680,750,300   10,118,328
00005.M2TS      4608 (0x1200)   0x90            PGS             eng (English)           6430.880                40                      31,827,748      182,131
00005.M2TS      4609 (0x1201)   0x90            PGS             spa (Spanish)           6430.880                39                      31,625,489      181,135
00005.M2TS      4610 (0x1202)   0x90            PGS             deu (German)            6430.880                5                       4,024,539       22,928

Код:
<---- END FORUMS PASTE ---->
QUICK SUMMARY:
Disc Title: Die Toten Hosen - Weil du nur einmal lebst
Disc Label: Die Toten Hosen - Tour 2018 2019 1080i Blu-ray AVC TrueHD 7.1-MUSiC4DE
Disc Size: 36,098,724,710 bytes
Protection: AACS
Playlist: 00002.MPLS
Size: 33,396,664,320 bytes
Length: 1:47:10.960
Total Bitrate: 41.54 Mbps
Video: MPEG-4 AVC Video / 27682 kbps / 1080i / 25 fps / 16:9 / High Profile 4.1
Audio: German / Dolby TrueHD/Atmos Audio / 7.1 / 48 kHz /  4323 kbps / 24-bit (AC3 Embedded: 5.1-EX / 48 kHz /   640 kbps / DN -31dB)
Audio: German / DTS-HD Master Audio / 5.1 / 48 kHz /  3462 kbps / 24-bit (DTS Core: 5.1 / 48 kHz /  1509 kbps / 24-bit)
Audio: German / DTS-HD Master Audio / 2.0 / 48 kHz /  2091 kbps / 24-bit (DTS Core: 2.0 / 48 kHz /  1509 kbps / 24-bit)
Subtitle: English / 39.593 kbps
Subtitle: Spanish / 39.342 kbps
Subtitle: German / 5.006 kbps
********************
PLAYLIST: 00000.MPLS
********************
<--- BEGIN FORUMS PASTE --->
Код:
Код:
Total   Video
Title                                                           Codec   Length  Movie Size      Disc Size       Bitrate Bitrate Main Audio Track                          Secondary Audio Track
-----                                                           ------  ------- --------------  --------------  ------- ------- ------------------                        ---------------------
00000.MPLS                                                      AVC     0:16:45 2,424,268,800   36,098,724,710  19.28   16.48   DD AC3 2.0 448Kbps

Код:
Код:
DISC INFO:
Disc Title:     Die Toten Hosen - Weil du nur einmal lebst
Disc Label:     Die Toten Hosen - Tour 2018 2019 1080i Blu-ray AVC TrueHD 7.1-MUSiC4DE
Disc Size:      36,098,724,710 bytes
Protection:     AACS
Extras:         50Hz Content
BDInfo:         0.7.5.5
PLAYLIST REPORT:
Name:                   00000.MPLS
Length:                 0:16:45.960 (h:m:s.ms)
Size:                   2,424,268,800 bytes
Total Bitrate:          19.28 Mbps
VIDEO:
Codec                   Bitrate             Description
-----                   -------             -----------
MPEG-4 AVC Video        16475 kbps          1080i / 25 fps / 16:9 / High Profile 4.1
AUDIO:
Codec                           Language        Bitrate         Description
-----                           --------        -------         -----------
Dolby Digital Audio             German          448 kbps        2.0 / 48 kHz /   448 kbps / DN -27dB
Dolby Digital Audio             German          448 kbps        2.0 / 48 kHz /   448 kbps / DN -27dB
Dolby Digital Audio             German          448 kbps        2.0 / 48 kHz /   448 kbps / DN -27dB
SUBTITLES:
Codec                           Language        Bitrate         Description
-----                           --------        -------         -----------
Presentation Graphics           English         0.001 kbps
Presentation Graphics           Spanish         0.001 kbps
Presentation Graphics           German          0.001 kbps
FILES:
Name            Time In         Length          Size            Total Bitrate
----            -------         ------          ----            -------------
00006.M2TS      0:00:00.000     0:02:12.039     225,847,296     13,684
00007.M2TS      0:02:12.039     0:01:15.720     193,929,216     20,489
00029.M2TS      0:03:27.760     0:02:06.880     412,876,800     26,033
00030.M2TS      0:05:34.640     0:02:35.000     369,315,840     19,061
00031.M2TS      0:08:09.640     0:08:35.520     1,222,115,328   18,965
00000.M2TS      0:16:45.160     0:00:00.799     184,320         1,843
CHAPTERS:
Number          Time In         Length          Avg Video Rate  Max 1-Sec Rate  Max 1-Sec Time  Max 5-Sec Rate  Max 5-Sec Time  Max 10Sec Rate  Max 10Sec Time  Avg Frame Size  Max Frame Size  Max Frame Time
------          -------         ------          --------------  --------------  --------------  --------------  --------------  --------------  --------------  --------------  --------------  --------------
1               0:00:00.000     0:02:12.039     11,113 kbps     32,863 kbps     00:00:05.000    23,260 kbps     00:00:04.960    18,861 kbps     00:00:04.960    55,564 bytes    668,050 bytes   00:00:07.879
2               0:02:12.039     0:01:15.720     17,636 kbps     27,632 kbps     00:03:20.519    23,221 kbps     00:03:17.000    22,571 kbps     00:03:13.760    88,228 bytes    406,456 bytes   00:02:24.880
3               0:03:27.760     0:02:06.880     22,948 kbps     31,017 kbps     00:05:12.960    27,029 kbps     00:05:09.000    26,290 kbps     00:05:04.200    114,774 bytes   414,493 bytes   00:04:35.559
4               0:05:34.640     0:02:35.000     16,268 kbps     26,151 kbps     00:06:11.080    23,722 kbps     00:06:11.080    21,473 kbps     00:06:10.120    81,362 bytes    444,586 bytes   00:06:56.799
5               0:08:09.640     0:08:36.319     16,148 kbps     30,650 kbps     00:14:45.520    26,933 kbps     00:14:39.400    25,641 kbps     00:14:33.520    80,754 bytes    525,301 bytes   00:15:50.080
STREAM DIAGNOSTICS:
File            PID             Type            Codec           Language                Seconds                 Bitrate                 Bytes           Packets
----            ---             ----            -----           --------                --------------          --------------          -------------   -----
00006.M2TS      4113 (0x1011)   0x1B            AVC                                     131.960                 11,120                  183,416,330     998,732
00006.M2TS      4352 (0x1100)   0x86            DTS-HD MA       deu (German)            131.960                 1,724                   28,430,760      173,078
00007.M2TS      4113 (0x1011)   0x1B            AVC                                     75.640                  17,655                  166,928,073     908,268
00007.M2TS      4352 (0x1100)   0x86            DTS-HD MA       deu (German)            75.640                  1,727                   16,329,056      99,220
00029.M2TS      4113 (0x1011)   0x1B            AVC                                     126.800                 22,962                  363,947,904     1,979,772
00029.M2TS      4352 (0x1100)   0x86            DTS-HD MA       deu (German)            126.800                 1,721                   27,272,060      166,336
00030.M2TS      4113 (0x1011)   0x1B            AVC                                     154.920                 16,277                  315,196,078     1,715,268
00030.M2TS      4352 (0x1100)   0x86            DTS-HD MA       deu (German)            154.920                 1,722                   33,345,368      203,030
00031.M2TS      4113 (0x1011)   0x1B            AVC                                     515.440                 16,176                  1,042,195,285   5,671,543
00031.M2TS      4352 (0x1100)   0x86            DTS-HD MA       deu (German)            515.440                 1,729                   111,381,116     676,331
00000.M2TS      4113 (0x1011)   0x1B            AVC                                     0.720                   136                     12,216          82
00000.M2TS      4352 (0x1100)   0x81            AC3             deu (German)            0.720                   518                     46,592          260
00000.M2TS      4353 (0x1101)   0x81            AC3             deu (German)            0.720                   518                     46,592          260
00000.M2TS      4354 (0x1102)   0x81            AC3             deu (German)            0.720                   518                     46,592          260
00000.M2TS      4608 (0x1200)   0x90            PGS             eng (English)           0.720                   2                       145             8
00000.M2TS      4609 (0x1201)   0x90            PGS             spa (Spanish)           0.720                   2                       145             8
00000.M2TS      4610 (0x1202)   0x90            PGS             deu (German)            0.720                   2                       145             8

Код:
<---- END FORUMS PASTE ---->
QUICK SUMMARY:
Disc Title: Die Toten Hosen - Weil du nur einmal lebst
Disc Label: Die Toten Hosen - Tour 2018 2019 1080i Blu-ray AVC TrueHD 7.1-MUSiC4DE
Disc Size: 36,098,724,710 bytes
Protection: AACS
Playlist: 00000.MPLS
Size: 2,424,268,800 bytes
Length: 0:16:45.960
Total Bitrate: 19.28 Mbps
Video: MPEG-4 AVC Video / 16475 kbps / 1080i / 25 fps / 16:9 / High Profile 4.1
Audio: German / Dolby Digital Audio / 2.0 / 48 kHz /   448 kbps / DN -27dB
Audio: German / Dolby Digital Audio / 2.0 / 48 kHz /   448 kbps / DN -27dB
Audio: German / Dolby Digital Audio / 2.0 / 48 kHz /   448 kbps / DN -27dB
Subtitle: English / 0.001 kbps
Subtitle: Spanish / 0.001 kbps
Subtitle: German / 0.001 kbps
********************
PLAYLIST: 00007.MPLS
********************
<--- BEGIN FORUMS PASTE --->
Код:
Код:
Total   Video
Title                                                           Codec   Length  Movie Size      Disc Size       Bitrate Bitrate Main Audio Track                          Secondary Audio Track
-----                                                           ------  ------- --------------  --------------  ------- ------- ------------------                        ---------------------
00007.MPLS                                                      AVC     0:08:36 1,222,299,648   36,098,724,710  18.94   16.15   DD AC3 2.0 448Kbps

Код:
Код:
DISC INFO:
Disc Title:     Die Toten Hosen - Weil du nur einmal lebst
Disc Label:     Die Toten Hosen - Tour 2018 2019 1080i Blu-ray AVC TrueHD 7.1-MUSiC4DE
Disc Size:      36,098,724,710 bytes
Protection:     AACS
Extras:         50Hz Content
BDInfo:         0.7.5.5
PLAYLIST REPORT:
Name:                   00007.MPLS
Length:                 0:08:36.319 (h:m:s.ms)
Size:                   1,222,299,648 bytes
Total Bitrate:          18.94 Mbps
VIDEO:
Codec                   Bitrate             Description
-----                   -------             -----------
MPEG-4 AVC Video        16148 kbps          1080i / 25 fps / 16:9 / High Profile 4.1
AUDIO:
Codec                           Language        Bitrate         Description
-----                           --------        -------         -----------
Dolby Digital Audio             German          448 kbps        2.0 / 48 kHz /   448 kbps / DN -27dB
Dolby Digital Audio             German          448 kbps        2.0 / 48 kHz /   448 kbps / DN -27dB
Dolby Digital Audio             German          448 kbps        2.0 / 48 kHz /   448 kbps / DN -27dB
SUBTITLES:
Codec                           Language        Bitrate         Description
-----                           --------        -------         -----------
Presentation Graphics           English         0.002 kbps
Presentation Graphics           Spanish         0.002 kbps
Presentation Graphics           German          0.002 kbps
FILES:
Name            Time In         Length          Size            Total Bitrate
----            -------         ------          ----            -------------
00031.M2TS      0:00:00.000     0:08:35.520     1,222,115,328   18,965
00000.M2TS      0:08:35.520     0:00:00.799     184,320         1,843
CHAPTERS:
Number          Time In         Length          Avg Video Rate  Max 1-Sec Rate  Max 1-Sec Time  Max 5-Sec Rate  Max 5-Sec Time  Max 10Sec Rate  Max 10Sec Time  Avg Frame Size  Max Frame Size  Max Frame Time
------          -------         ------          --------------  --------------  --------------  --------------  --------------  --------------  --------------  --------------  --------------  --------------
1               0:00:00.000     0:08:36.319     16,148 kbps     30,650 kbps     00:06:35.880    26,933 kbps     00:06:29.760    25,641 kbps     00:06:23.880    80,747 bytes    525,301 bytes   00:07:40.440
STREAM DIAGNOSTICS:
File            PID             Type            Codec           Language                Seconds                 Bitrate                 Bytes           Packets
----            ---             ----            -----           --------                --------------          --------------          -------------   -----
00031.M2TS      4113 (0x1011)   0x1B            AVC                                     515.440                 16,176                  1,042,195,285   5,671,543
00031.M2TS      4352 (0x1100)   0x86            DTS-HD MA       deu (German)            515.440                 1,729                   111,381,116     676,331
00000.M2TS      4113 (0x1011)   0x1B            AVC                                     0.720                   136                     12,216          82
00000.M2TS      4352 (0x1100)   0x81            AC3             deu (German)            0.720                   518                     46,592          260
00000.M2TS      4353 (0x1101)   0x81            AC3             deu (German)            0.720                   518                     46,592          260
00000.M2TS      4354 (0x1102)   0x81            AC3             deu (German)            0.720                   518                     46,592          260
00000.M2TS      4608 (0x1200)   0x90            PGS             eng (English)           0.720                   2                       145             8
00000.M2TS      4609 (0x1201)   0x90            PGS             spa (Spanish)           0.720                   2                       145             8
00000.M2TS      4610 (0x1202)   0x90            PGS             deu (German)            0.720                   2                       145             8

Код:
<---- END FORUMS PASTE ---->
QUICK SUMMARY:
Disc Title: Die Toten Hosen - Weil du nur einmal lebst
Disc Label: Die Toten Hosen - Tour 2018 2019 1080i Blu-ray AVC TrueHD 7.1-MUSiC4DE
Disc Size: 36,098,724,710 bytes
Protection: AACS
Playlist: 00007.MPLS
Size: 1,222,299,648 bytes
Length: 0:08:36.319
Total Bitrate: 18.94 Mbps
Video: MPEG-4 AVC Video / 16148 kbps / 1080i / 25 fps / 16:9 / High Profile 4.1
Audio: German / Dolby Digital Audio / 2.0 / 48 kHz /   448 kbps / DN -27dB
Audio: German / Dolby Digital Audio / 2.0 / 48 kHz /   448 kbps / DN -27dB
Audio: German / Dolby Digital Audio / 2.0 / 48 kHz /   448 kbps / DN -27dB
Subtitle: English / 0.002 kbps
Subtitle: Spanish / 0.002 kbps
Subtitle: German / 0.002 kbps
********************
PLAYLIST: 00006.MPLS
********************
<--- BEGIN FORUMS PASTE --->
Код:
Код:
Total   Video
Title                                                           Codec   Length  Movie Size      Disc Size       Bitrate Bitrate Main Audio Track                          Secondary Audio Track
-----                                                           ------  ------- --------------  --------------  ------- ------- ------------------                        ---------------------
00006.MPLS                                                      AVC     0:02:35 369,500,160     36,098,724,710  18.97   16.19   DD AC3 2.0 448Kbps

Код:
Код:
DISC INFO:
Disc Title:     Die Toten Hosen - Weil du nur einmal lebst
Disc Label:     Die Toten Hosen - Tour 2018 2019 1080i Blu-ray AVC TrueHD 7.1-MUSiC4DE
Disc Size:      36,098,724,710 bytes
Protection:     AACS
Extras:         50Hz Content
BDInfo:         0.7.5.5
PLAYLIST REPORT:
Name:                   00006.MPLS
Length:                 0:02:35.799 (h:m:s.ms)
Size:                   369,500,160 bytes
Total Bitrate:          18.97 Mbps
VIDEO:
Codec                   Bitrate             Description
-----                   -------             -----------
MPEG-4 AVC Video        16185 kbps          1080i / 25 fps / 16:9 / High Profile 4.1
AUDIO:
Codec                           Language        Bitrate         Description
-----                           --------        -------         -----------
Dolby Digital Audio             German          448 kbps        2.0 / 48 kHz /   448 kbps / DN -27dB
Dolby Digital Audio             German          448 kbps        2.0 / 48 kHz /   448 kbps / DN -27dB
Dolby Digital Audio             German          448 kbps        2.0 / 48 kHz /   448 kbps / DN -27dB
SUBTITLES:
Codec                           Language        Bitrate         Description
-----                           --------        -------         -----------
Presentation Graphics           English         0.007 kbps
Presentation Graphics           Spanish         0.007 kbps
Presentation Graphics           German          0.007 kbps
FILES:
Name            Time In         Length          Size            Total Bitrate
----            -------         ------          ----            -------------
00030.M2TS      0:00:00.000     0:02:35.000     369,315,840     19,061
00000.M2TS      0:02:35.000     0:00:00.799     184,320         1,843
CHAPTERS:
Number          Time In         Length          Avg Video Rate  Max 1-Sec Rate  Max 1-Sec Time  Max 5-Sec Rate  Max 5-Sec Time  Max 10Sec Rate  Max 10Sec Time  Avg Frame Size  Max Frame Size  Max Frame Time
------          -------         ------          --------------  --------------  --------------  --------------  --------------  --------------  --------------  --------------  --------------  --------------
1               0:00:00.000     0:02:35.799     16,185 kbps     26,151 kbps     00:00:36.440    23,722 kbps     00:00:36.440    21,473 kbps     00:00:35.480    80,947 bytes    444,586 bytes   00:01:22.159
STREAM DIAGNOSTICS:
File            PID             Type            Codec           Language                Seconds                 Bitrate                 Bytes           Packets
----            ---             ----            -----           --------                --------------          --------------          -------------   -----
00030.M2TS      4113 (0x1011)   0x1B            AVC                                     154.920                 16,277                  315,196,078     1,715,268
00030.M2TS      4352 (0x1100)   0x86            DTS-HD MA       deu (German)            154.920                 1,722                   33,345,368      203,030
00000.M2TS      4113 (0x1011)   0x1B            AVC                                     0.720                   136                     12,216          82
00000.M2TS      4352 (0x1100)   0x81            AC3             deu (German)            0.720                   518                     46,592          260
00000.M2TS      4353 (0x1101)   0x81            AC3             deu (German)            0.720                   518                     46,592          260
00000.M2TS      4354 (0x1102)   0x81            AC3             deu (German)            0.720                   518                     46,592          260
00000.M2TS      4608 (0x1200)   0x90            PGS             eng (English)           0.720                   2                       145             8
00000.M2TS      4609 (0x1201)   0x90            PGS             spa (Spanish)           0.720                   2                       145             8
00000.M2TS      4610 (0x1202)   0x90            PGS             deu (German)            0.720                   2                       145             8

Код:
<---- END FORUMS PASTE ---->
QUICK SUMMARY:
Disc Title: Die Toten Hosen - Weil du nur einmal lebst
Disc Label: Die Toten Hosen - Tour 2018 2019 1080i Blu-ray AVC TrueHD 7.1-MUSiC4DE
Disc Size: 36,098,724,710 bytes
Protection: AACS
Playlist: 00006.MPLS
Size: 369,500,160 bytes
Length: 0:02:35.799
Total Bitrate: 18.97 Mbps
Video: MPEG-4 AVC Video / 16185 kbps / 1080i / 25 fps / 16:9 / High Profile 4.1
Audio: German / Dolby Digital Audio / 2.0 / 48 kHz /   448 kbps / DN -27dB
Audio: German / Dolby Digital Audio / 2.0 / 48 kHz /   448 kbps / DN -27dB
Audio: German / Dolby Digital Audio / 2.0 / 48 kHz /   448 kbps / DN -27dB
Subtitle: English / 0.007 kbps
Subtitle: Spanish / 0.007 kbps
Subtitle: German / 0.007 kbps
********************
PLAYLIST: 00003.MPLS
********************
<--- BEGIN FORUMS PASTE --->
Код:
Код:
Total   Video
Title                                                           Codec   Length  Movie Size      Disc Size       Bitrate Bitrate Main Audio Track                          Secondary Audio Track
-----                                                           ------  ------- --------------  --------------  ------- ------- ------------------                        ---------------------
00003.MPLS                                                      AVC     0:02:12 226,031,616     36,098,724,710  13.61   11.05   DD AC3 2.0 448Kbps

Код:
Код:
DISC INFO:
Disc Title:     Die Toten Hosen - Weil du nur einmal lebst
Disc Label:     Die Toten Hosen - Tour 2018 2019 1080i Blu-ray AVC TrueHD 7.1-MUSiC4DE
Disc Size:      36,098,724,710 bytes
Protection:     AACS
Extras:         50Hz Content
BDInfo:         0.7.5.5
PLAYLIST REPORT:
Name:                   00003.MPLS
Length:                 0:02:12.839 (h:m:s.ms)
Size:                   226,031,616 bytes
Total Bitrate:          13.61 Mbps
VIDEO:
Codec                   Bitrate             Description
-----                   -------             -----------
MPEG-4 AVC Video        11047 kbps          1080i / 25 fps / 16:9 / High Profile 4.1
AUDIO:
Codec                           Language        Bitrate         Description
-----                           --------        -------         -----------
Dolby Digital Audio             German          448 kbps        2.0 / 48 kHz /   448 kbps / DN -27dB
Dolby Digital Audio             German          448 kbps        2.0 / 48 kHz /   448 kbps / DN -27dB
Dolby Digital Audio             German          448 kbps        2.0 / 48 kHz /   448 kbps / DN -27dB
SUBTITLES:
Codec                           Language        Bitrate         Description
-----                           --------        -------         -----------
Presentation Graphics           English         0.009 kbps
Presentation Graphics           Spanish         0.009 kbps
Presentation Graphics           German          0.009 kbps
FILES:
Name            Time In         Length          Size            Total Bitrate
----            -------         ------          ----            -------------
00006.M2TS      0:00:00.000     0:02:12.039     225,847,296     13,684
00000.M2TS      0:02:12.039     0:00:00.799     184,320         1,843
CHAPTERS:
Number          Time In         Length          Avg Video Rate  Max 1-Sec Rate  Max 1-Sec Time  Max 5-Sec Rate  Max 5-Sec Time  Max 10Sec Rate  Max 10Sec Time  Avg Frame Size  Max Frame Size  Max Frame Time
------          -------         ------          --------------  --------------  --------------  --------------  --------------  --------------  --------------  --------------  --------------  --------------
1               0:00:00.000     0:02:12.839     11,047 kbps     32,863 kbps     00:00:05.000    23,260 kbps     00:00:04.960    18,861 kbps     00:00:04.960    55,250 bytes    668,050 bytes   00:00:07.879
STREAM DIAGNOSTICS:
File            PID             Type            Codec           Language                Seconds                 Bitrate                 Bytes           Packets
----            ---             ----            -----           --------                --------------          --------------          -------------   -----
00006.M2TS      4113 (0x1011)   0x1B            AVC                                     131.960                 11,120                  183,416,330     998,732
00006.M2TS      4352 (0x1100)   0x86            DTS-HD MA       deu (German)            131.960                 1,724                   28,430,760      173,078
00000.M2TS      4113 (0x1011)   0x1B            AVC                                     0.720                   136                     12,216          82
00000.M2TS      4352 (0x1100)   0x81            AC3             deu (German)            0.720                   518                     46,592          260
00000.M2TS      4353 (0x1101)   0x81            AC3             deu (German)            0.720                   518                     46,592          260
00000.M2TS      4354 (0x1102)   0x81            AC3             deu (German)            0.720                   518                     46,592          260
00000.M2TS      4608 (0x1200)   0x90            PGS             eng (English)           0.720                   2                       145             8
00000.M2TS      4609 (0x1201)   0x90            PGS             spa (Spanish)           0.720                   2                       145             8
00000.M2TS      4610 (0x1202)   0x90            PGS             deu (German)            0.720                   2                       145             8

Код:
<---- END FORUMS PASTE ---->
QUICK SUMMARY:
Disc Title: Die Toten Hosen - Weil du nur einmal lebst
Disc Label: Die Toten Hosen - Tour 2018 2019 1080i Blu-ray AVC TrueHD 7.1-MUSiC4DE
Disc Size: 36,098,724,710 bytes
Protection: AACS
Playlist: 00003.MPLS
Size: 226,031,616 bytes
Length: 0:02:12.839
Total Bitrate: 13.61 Mbps
Video: MPEG-4 AVC Video / 11047 kbps / 1080i / 25 fps / 16:9 / High Profile 4.1
Audio: German / Dolby Digital Audio / 2.0 / 48 kHz /   448 kbps / DN -27dB
Audio: German / Dolby Digital Audio / 2.0 / 48 kHz /   448 kbps / DN -27dB
Audio: German / Dolby Digital Audio / 2.0 / 48 kHz /   448 kbps / DN -27dB
Subtitle: English / 0.009 kbps
Subtitle: Spanish / 0.009 kbps
Subtitle: German / 0.009 kbps
********************
PLAYLIST: 00005.MPLS
********************
<--- BEGIN FORUMS PASTE --->
Код:
Код:
Total   Video
Title                                                           Codec   Length  Movie Size      Disc Size       Bitrate Bitrate Main Audio Track                          Secondary Audio Track
-----                                                           ------  ------- --------------  --------------  ------- ------- ------------------                        ---------------------
00005.MPLS                                                      AVC     0:02:07 413,061,120     36,098,724,710  25.88   22.80   DD AC3 2.0 448Kbps

Код:
Код:
DISC INFO:
Disc Title:     Die Toten Hosen - Weil du nur einmal lebst
Disc Label:     Die Toten Hosen - Tour 2018 2019 1080i Blu-ray AVC TrueHD 7.1-MUSiC4DE
Disc Size:      36,098,724,710 bytes
Protection:     AACS
Extras:         50Hz Content
BDInfo:         0.7.5.5
PLAYLIST REPORT:
Name:                   00005.MPLS
Length:                 0:02:07.679 (h:m:s.ms)
Size:                   413,061,120 bytes
Total Bitrate:          25.88 Mbps
VIDEO:
Codec                   Bitrate             Description
-----                   -------             -----------
MPEG-4 AVC Video        22805 kbps          1080i / 25 fps / 16:9 / High Profile 4.1
AUDIO:
Codec                           Language        Bitrate         Description
-----                           --------        -------         -----------
Dolby Digital Audio             German          448 kbps        2.0 / 48 kHz /   448 kbps / DN -27dB
Dolby Digital Audio             German          448 kbps        2.0 / 48 kHz /   448 kbps / DN -27dB
Dolby Digital Audio             German          448 kbps        2.0 / 48 kHz /   448 kbps / DN -27dB
SUBTITLES:
Codec                           Language        Bitrate         Description
-----                           --------        -------         -----------
Presentation Graphics           English         0.009 kbps
Presentation Graphics           Spanish         0.009 kbps
Presentation Graphics           German          0.009 kbps
FILES:
Name            Time In         Length          Size            Total Bitrate
----            -------         ------          ----            -------------
00029.M2TS      0:00:00.000     0:02:06.880     412,876,800     26,033
00000.M2TS      0:02:06.880     0:00:00.799     184,320         1,843
CHAPTERS:
Number          Time In         Length          Avg Video Rate  Max 1-Sec Rate  Max 1-Sec Time  Max 5-Sec Rate  Max 5-Sec Time  Max 10Sec Rate  Max 10Sec Time  Avg Frame Size  Max Frame Size  Max Frame Time
------          -------         ------          --------------  --------------  --------------  --------------  --------------  --------------  --------------  --------------  --------------  --------------
1               0:00:00.000     0:02:07.679     22,805 kbps     31,017 kbps     00:01:45.200    27,029 kbps     00:01:41.240    26,290 kbps     00:01:36.440    114,058 bytes   414,493 bytes   00:01:07.799
STREAM DIAGNOSTICS:
File            PID             Type            Codec           Language                Seconds                 Bitrate                 Bytes           Packets
----            ---             ----            -----           --------                --------------          --------------          -------------   -----
00029.M2TS      4113 (0x1011)   0x1B            AVC                                     126.800                 22,962                  363,947,904     1,979,772
00029.M2TS      4352 (0x1100)   0x86            DTS-HD MA       deu (German)            126.800                 1,721                   27,272,060      166,336
00000.M2TS      4113 (0x1011)   0x1B            AVC                                     0.720                   136                     12,216          82
00000.M2TS      4352 (0x1100)   0x81            AC3             deu (German)            0.720                   518                     46,592          260
00000.M2TS      4353 (0x1101)   0x81            AC3             deu (German)            0.720                   518                     46,592          260
00000.M2TS      4354 (0x1102)   0x81            AC3             deu (German)            0.720                   518                     46,592          260
00000.M2TS      4608 (0x1200)   0x90            PGS             eng (English)           0.720                   2                       145             8
00000.M2TS      4609 (0x1201)   0x90            PGS             spa (Spanish)           0.720                   2                       145             8
00000.M2TS      4610 (0x1202)   0x90            PGS             deu (German)            0.720                   2                       145             8

Код:
<---- END FORUMS PASTE ---->
QUICK SUMMARY:
Disc Title: Die Toten Hosen - Weil du nur einmal lebst
Disc Label: Die Toten Hosen - Tour 2018 2019 1080i Blu-ray AVC TrueHD 7.1-MUSiC4DE
Disc Size: 36,098,724,710 bytes
Protection: AACS
Playlist: 00005.MPLS
Size: 413,061,120 bytes
Length: 0:02:07.679
Total Bitrate: 25.88 Mbps
Video: MPEG-4 AVC Video / 22805 kbps / 1080i / 25 fps / 16:9 / High Profile 4.1
Audio: German / Dolby Digital Audio / 2.0 / 48 kHz /   448 kbps / DN -27dB
Audio: German / Dolby Digital Audio / 2.0 / 48 kHz /   448 kbps / DN -27dB
Audio: German / Dolby Digital Audio / 2.0 / 48 kHz /   448 kbps / DN -27dB
Subtitle: English / 0.009 kbps
Subtitle: Spanish / 0.009 kbps
Subtitle: German / 0.009 kbps
********************
PLAYLIST: 00004.MPLS
********************
<--- BEGIN FORUMS PASTE --->
Код:
Код:
Total   Video
Title                                                           Codec   Length  Movie Size      Disc Size       Bitrate Bitrate Main Audio Track                          Secondary Audio Track
-----                                                           ------  ------- --------------  --------------  ------- ------- ------------------                        ---------------------
00004.MPLS                                                      AVC     0:01:16 194,113,536     36,098,724,710  20.29   17.45   DD AC3 2.0 448Kbps

Код:
Код:
DISC INFO:
Disc Title:     Die Toten Hosen - Weil du nur einmal lebst
Disc Label:     Die Toten Hosen - Tour 2018 2019 1080i Blu-ray AVC TrueHD 7.1-MUSiC4DE
Disc Size:      36,098,724,710 bytes
Protection:     AACS
Extras:         50Hz Content
BDInfo:         0.7.5.5
PLAYLIST REPORT:
Name:                   00004.MPLS
Length:                 0:01:16.519 (h:m:s.ms)
Size:                   194,113,536 bytes
Total Bitrate:          20.29 Mbps
VIDEO:
Codec                   Bitrate             Description
-----                   -------             -----------
MPEG-4 AVC Video        17453 kbps          1080i / 25 fps / 16:9 / High Profile 4.1
AUDIO:
Codec                           Language        Bitrate         Description
-----                           --------        -------         -----------
Dolby Digital Audio             German          448 kbps        2.0 / 48 kHz /   448 kbps / DN -27dB
Dolby Digital Audio             German          448 kbps        2.0 / 48 kHz /   448 kbps / DN -27dB
Dolby Digital Audio             German          448 kbps        2.0 / 48 kHz /   448 kbps / DN -27dB
SUBTITLES:
Codec                           Language        Bitrate         Description
-----                           --------        -------         -----------
Presentation Graphics           English         0.015 kbps
Presentation Graphics           Spanish         0.015 kbps
Presentation Graphics           German          0.015 kbps
FILES:
Name            Time In         Length          Size            Total Bitrate
----            -------         ------          ----            -------------
00007.M2TS      0:00:00.000     0:01:15.720     193,929,216     20,489
00000.M2TS      0:01:15.720     0:00:00.799     184,320         1,843
CHAPTERS:
Number          Time In         Length          Avg Video Rate  Max 1-Sec Rate  Max 1-Sec Time  Max 5-Sec Rate  Max 5-Sec Time  Max 10Sec Rate  Max 10Sec Time  Avg Frame Size  Max Frame Size  Max Frame Time
------          -------         ------          --------------  --------------  --------------  --------------  --------------  --------------  --------------  --------------  --------------  --------------
1               0:00:00.000     0:01:16.519     17,453 kbps     27,632 kbps     00:01:08.480    23,221 kbps     00:01:04.960    22,571 kbps     00:01:01.720    87,312 bytes    406,456 bytes   00:00:12.840
STREAM DIAGNOSTICS:
File            PID             Type            Codec           Language                Seconds                 Bitrate                 Bytes           Packets
----            ---             ----            -----           --------                --------------          --------------          -------------   -----
00007.M2TS      4113 (0x1011)   0x1B            AVC                                     75.640                  17,655                  166,928,073     908,268
00007.M2TS      4352 (0x1100)   0x86            DTS-HD MA       deu (German)            75.640                  1,727                   16,329,056      99,220
00000.M2TS      4113 (0x1011)   0x1B            AVC                                     0.720                   136                     12,216          82
00000.M2TS      4352 (0x1100)   0x81            AC3             deu (German)            0.720                   518                     46,592          260
00000.M2TS      4353 (0x1101)   0x81            AC3             deu (German)            0.720                   518                     46,592          260
00000.M2TS      4354 (0x1102)   0x81            AC3             deu (German)            0.720                   518                     46,592          260
00000.M2TS      4608 (0x1200)   0x90            PGS             eng (English)           0.720                   2                       145             8
00000.M2TS      4609 (0x1201)   0x90            PGS             spa (Spanish)           0.720                   2                       145             8
00000.M2TS      4610 (0x1202)   0x90            PGS             deu (German)            0.720                   2                       145             8

Код:
<---- END FORUMS PASTE ---->
QUICK SUMMARY:
Disc Title: Die Toten Hosen - Weil du nur einmal lebst
Disc Label: Die Toten Hosen - Tour 2018 2019 1080i Blu-ray AVC TrueHD 7.1-MUSiC4DE
Disc Size: 36,098,724,710 bytes
Protection: AACS
Playlist: 00004.MPLS
Size: 194,113,536 bytes
Length: 0:01:16.519
Total Bitrate: 20.29 Mbps
Video: MPEG-4 AVC Video / 17453 kbps / 1080i / 25 fps / 16:9 / High Profile 4.1
Audio: German / Dolby Digital Audio / 2.0 / 48 kHz /   448 kbps / DN -27dB
Audio: German / Dolby Digital Audio / 2.0 / 48 kHz /   448 kbps / DN -27dB
Audio: German / Dolby Digital Audio / 2.0 / 48 kHz /   448 kbps / DN -27dB
Subtitle: English / 0.015 kbps
Subtitle: Spanish / 0.015 kbps
Subtitle: German / 0.015 kbps
#777
Правила, инструкции, FAQ!!!
Торрент  Добавлен [10 сен 2019, 23:25] Скачать торрент Магнет ссылка
Скачать торрент
[ Размер 172.67 КБ / Просмотров 7 ]

Статус
Проверен 
 
Размер  33.62 ГБ
Приватный: Нет (DHT включён)
.torrent скачан  0
Как залить торрент? | Как скачать Torrent? | Ошибка в торренте? Качайте магнет  


     Отправить личное сообщение
   
Страница 1 из 1
Показать сообщения за:  Поле сортировки  
Начать новую тему Ответить на тему


Сейчас этот форум просматривают: нет зарегистрированных пользователей и гости: 0


Вы не можете начинать темы
Вы не можете отвечать на сообщения
Вы не можете редактировать свои сообщения
Вы не можете удалять свои сообщения
Вы не можете добавлять вложения

Перейти:  
Ресурс не предоставляет электронные версии произведений, а занимается лишь коллекционированием и каталогизацией ссылок, присылаемых и публикуемых на форуме нашими читателями. Если вы являетесь правообладателем какого-либо представленного материала и не желаете чтобы ссылка на него находилась в нашем каталоге, свяжитесь с нами и мы незамедлительно удалим её. Файлы для обмена на трекере предоставлены пользователями сайта, и администрация не несёт ответственности за их содержание. Просьба не заливать файлы, защищенные авторскими правами, а также файлы нелегального содержания!