Начать новую тему Ответить на тему
Статистика раздачи
Размер: 3.24 ГБ | Добавлен: 05 сен 2015, 23:17 | Скачали: 9
Сидеров: 110  [0 байт/сек]    Личеров: 4  [0 байт/сек]
Пред. тема | След. тема 

Автор
Сообщение

СообщениеДобавлено: 05 сен 2015, 23:17 

Ответить с цитатой 

De Phazz, Karl Frierson - 8 альбомов (1997 - 2007)



Год:1997 - 2007 | Жанр: Downtempo Jazz | Продолжительность: 08:35:27
Аудиокодек: APE | Битрейт: Lossless | Тип раздачи: image+.cue| Наличие сканов в содержимом раздачи: Да
Итак, De-Phazz... Описание:Теряющиеся в невесомости, раскачивающиеся басовые линии, бесконечные дабовые задержки и грустно вибрирующие вокальные частоты. Пересекающее в своём высоком полете границы множества музыкальных жанров без потери своего притягательного шарма и чистоты стиля, красивое облако из acid-jazz, trip-hop, ambient и jungle с ярко выраженной джазовой составляющей, временами более смахивающей на интеллигентный drum'n'bass.
В стремительно удаляющихся от нас 80-х Barbara участвовала в нескольких странных, зачастую мистических, а также экстремально-нойзовых музыкальных проектах (Guru Guru, Sanfte Liebe, Janet The Planet), успех которых ограничивался рамками локальной сцены. Однако это не помешало в 1989 году получить артистке Deutscher Rockpreis, а в 1990 году премию Studiopreis des WDR (западно-германская телерадиовещательная компания). Затем пришло время 90-х: house, techno, aсid jazz и других модных клубных стилей. Barbara занялась поиском новых музыкальных платформ, успевая при этом писать музыку для театра (шоу "Funk Rock-N-Roll Circus" с участием более 40 музыкантов и танцоров) и минифильмов европейского "культурного" телеканала ARTE, а также выступала в качестве исполнительницы шансона и баллад во Франции и в России (!) и записывала соло-программы на базе сэмплера и гитары. В начале 90-х она распускает свою группу Janet The Planet и меняет помещение репетиционной "точки" на место за домашним "навороченным" компьютером: "В тот момент, когда я начала работать с машинами, у меня совершенно изменились представления о музыке".

В 1994 году артистку впервые пригласил к себе в студию очень разносторонний человек, в прошлом DJ, музыкант варьете "Fooltheater", сценарист на радио и телевидении, автор танцевальной театральной музыки, детских песенок и видеоклипов, а в настоящем продюсер таких проектов и исполнителей, как United Language, Karl Frierson, Green Vision, De-Phazz, L.A.H.R., звукорежиссер ManMachineMan, Paris Red, Anima Soundsystem, автор музыки для "промышленных" рекламных роликов (Siemens-Nixdorf) — мастер Pit Baumgartner. Результатом их совместной работы стал трек для проекта United Language (диск-компиляция). Barbara почувствовала, что она способна на нечто большее, чем роль героини локальной сцены. Вскоре Baumgartner и Lahr подписали договор с независимым лейблом Mole Listening Pearls, на счету которого к тому времени уже было несколько очень стильных компиляций вроде серии Science Fiction Jazz или Breaking The Ice, украшенных интересными драм-н-бэйс- и техно-композициями от Rockers Hi-Fi, Coldcut, Red Snapper, Lamb, Squarepusher и других артистов. В такой компании не затерялись и треки из дебютного альбома De-Phazz, и c CD Lyrical Amusement новоиспеченного проекта Barbara & Pit L.A.H.R., проповедующего музыкальное "фигурное катание", главными техническими элементами которого являются space-jazz, intelligent electro, drum-n-bass, lounge, прекрасные вокалы и атмосфера ночных клубов плюс лирика, которую в некоторых случаях вполне можно было бы отнести перу английского мистика Уильяма Блейка или даже Франца Кафки. Многие критики немедленно поспешили сравнить De-Phazz и L.A.H.R. с Portishead и Moloko... "Если мы и "затерянные во ржи", то совершенно на разных полях, — образно замечает Barbara. — Я скорее следую примеру Hildegard Knef. Мне также нравится саунд Caterina Valente и Freddy Quinne. Он был супернежным. Вот те источники, в которых я нахожу свои сэмплы...".

Нельзя обойти вниманием и "второй голос" De-Phazz — классический соул-вокал Karl Frierson. Уроженец Южной Каролины в составе госпел-хора американской армии очутился на одной из натовских баз в Германии, откуда спустя несколько лет "дезертировал" в немецкие jazz-клубы и начал своё путешествие по миру мюзиклов и театральных постановок, пока в конце концов не примкнул к компании Pit Baumgartner, продюсировавшего в 1995 году соло-альбом Frierson Message To The Cool. А рука мастера Pit Baumgartner оставила свой отпечаток не только на проектах De-Phazz и L.A.H.R. — вместе со своим давним приятелем Hartmut Hofele, который среди всего прочего является продюсером Mardi Grass Brass Band, Pit занимается группой Green Vision, на счету которой уже имеется два альбома, Uptown/Downtown и Made In Hong Kong, первый из которых базируется на сэмплах, записанных Hofele на улицах Нью-Йорка, а второй придерживается стилистики футуристического саундтрека со звуками и голосами некоей азиатской метрополии.

Что ж, в случае с De-Phazz лейбл Mole разыграл верную карту. Группа местного масштаба попала на самые верхние строчки списка "лиги чемпионов": сегодня группа на 101 процент является лидером не только германской, но и европейской эсид-джаз- и трип-хоп-сцены; она буквально влила новую кровь в "нежные вены" жанра.

Первый альбом De-Phazz Detunized Gravity наряду с традиционными трип-хоп-номерами содержит несколько поистине фантастических треков, от которых начинают дрожать коленки и "эпидермис покрывается гусиной кожей". Потом выходит второй альбом De-Phazz Godsdog, который отличается от предыдущего по стилистике музыки. Она практически избавилась от соул- и хип-хоп-элементов, что в данном конкретном случае пошло команде только на пользу. Очень киногеничный, знойный джаз, экзотическая солнечная мамба, убийственно модный трип-хоп и благоухающий ретроароматами lounge, часто изысканно перемешанные в одном оригинальном сосуде, который затем с достоинством подаётся уважаемому слушателю на большом серебряном подносе, как в дорогом ресторане. Саунд De-Phazz стал более респектабельным и захватывающим. Он приковывает к себе внимание. Он абсолютно позитивен и комфортабелен. Да, это по-прежнему предельно модная музыка, но уже с явным намёком на долголетнее удовлетворение наших музыкальных капризов.

Неудивительно, что концерты группы превращаются в зрелищные шоу, где различные виды искусства мирно сосуществуют и дополняют друг друга. Однако нас больше интересует то, кто принимал участие в записи альбома Godsdog. Треки микшировал и продюсировал в хейдельбергской студии Desecration Studio сам мастер Pit Baumgartner, глава артистической семьи De-Phazz. Он же является автором музыки и архитектором композиций. Вокальные партии на новом диске исполняли Pat Appleton, Charity D. Sanders, Karl Frierson, Roy Randolph E. и Barbara Lahr, но последняя на этот раз не доминировала, как на альбоме Detunized Gravity. Среди музыкантов-инструменталистов, подключенных к работе над Godsdog, мы упомянем имена Otto Engelhardt (тромбон, клавишные), Eckes Malz (пианино), A. Lex Auer (джазовая гитара), Pedro Gonzales Gonzales (гитара), Mat Dorsam (саксофон, флейта), Dax Dorsam (гитара).

Третий альбом — Death By Chocolate. De-Phazz, как всегда, предлагает что-то элегантное и впечатляющее. "Смерть от Шоколада" — это музыка остроумная, саркастичная, наполненная аккуратностью и вниманием к мелочам. Именно поэтому третий альбом немецкого проекта, как и предыдущие Detunized Gravity и Godsdog, можно слушать много раз и всегда находить неожиданность. Какой-нибудь удачный басовый ход или барабанный брейк, особенно изысканный тромбоновый подголосок или соло на трубе с сурдиной, вкусное сочетание тембров или эффектную обработку на вокале... В общем, пальчики оближешь! Для любителей более точного определения стилей замечу, что в своём третьем альбоме De-Phazz не слишком отошли от удачно найденного ими микса drum-n-bass, acid и jungle-jazz с вкраплением ностальгии. Но в Death By Chocolate музыканты, может быть, и в угоду резвящейся нынче европейской моде на easy listening, сгладили нервозность барабанов, подчеркнули эстетику 50-60-х: чего только стоит оформление диска! Появилось больше вокальных треков, больше поп-джазовых мотивов, хотя по выразительности мелодий этот альбом несколько уступает Godsdog. В то же время, музыканты "заглянули" туда, где толком никогда не были: заглавная композиция — откровенно джазовая тема в духе Билла Эванса (саксофониста), а композиция "Roy's Choice" — дань ориентальной музыке в духе "Up, Bustle And Out".

Безусловно, De-Phazz меняется, за этим интересно наблюдать, тем более, что они по-прежнему "качают" и угощают слушателей беспечной искристой радостью.
Пит Баумгартнер (идейный лидер и программист)
Барбара Лар (вокал)
Пэт Эпплтон (вокал)
Карл Фриерсон (вокал)
Отто Энгельхард (перкуссия)
Дорит Донненбергер (танцор)
Беттина Донненбергер (танцор)
Доротея Донненберг (специалист по видеоэффектам)
Треклист:
Список альбомов:
Detunized Gravity (1997/2002)
Godsdog (1999)
Death by Chocolate (2001)
Daily Lama (2002
Plastic Love Memory (2002)
Natural Fake (2005)
Days of Twang (2007)
Karl Frierson - Soulprint (2006)
01. Roses (7:03)
02. Between 2 Thieves (5:29)
03. Homesick Inc. (4:05)
04. Lovechild (4:51)
05. Cut The Jazz (5:12)
06. Little Company (5:48)
07. Nameless Life (album version) (5:31)
08. Good Boy (album version) (6:11)
09. Lullaby (5:00)
10. Hero Dead & Gone (radio swing mix) (3:59)
11. No Jive (album version) (4:35)
12. Detunized Gravity (3:46)
13. Free Drift (6:20)

Продолжитeльнoсть: 01:45:06
Код:
Код:
PERFORMER "De Phazz"
TITLE "Detunized Gravity CD1 LE"
FILE "cdimage1.ape" WAVE
  TRACK 01 AUDIO
    TITLE "Roses"
    PERFORMER "De Phazz"
    INDEX 01 00:00:00
  TRACK 02 AUDIO
    TITLE "Between 2 Thieves"
    PERFORMER "De Phazz"
    INDEX 00 07:01:05
    INDEX 01 07:03:09
  TRACK 03 AUDIO
    TITLE "Homesick Inc."
    PERFORMER "De Phazz"
    INDEX 00 12:29:69
    INDEX 01 12:31:68
  TRACK 04 AUDIO
    TITLE "Lovechild"
    PERFORMER "De Phazz"
    INDEX 00 16:35:02
    INDEX 01 16:36:58
  TRACK 05 AUDIO
    TITLE "Cut The Jazz"
    PERFORMER "De Phazz"
    INDEX 00 21:25:26
    INDEX 01 21:27:37
  TRACK 06 AUDIO
    TITLE "Little Company"
    PERFORMER "De Phazz"
    INDEX 00 26:37:43
    INDEX 01 26:39:54
  TRACK 07 AUDIO
    TITLE "Nameless Life (album version)"
    PERFORMER "De Phazz"
    INDEX 00 32:25:28
    INDEX 01 32:27:18
  TRACK 08 AUDIO
    TITLE "Good Boy (album version)"
    PERFORMER "De Phazz"
    INDEX 00 37:56:07
    INDEX 01 37:58:09
  TRACK 09 AUDIO
    TITLE "Lullaby"
    PERFORMER "De Phazz"
    INDEX 00 44:07:24
    INDEX 01 44:09:29
  TRACK 10 AUDIO
    TITLE "Hero Dead & Gone (radio swing mix)"
    PERFORMER "De Phazz"
    INDEX 00 49:07:10
    INDEX 01 49:09:21
  TRACK 11 AUDIO
    TITLE "No Jive (album version)"
    PERFORMER "De Phazz"
    INDEX 00 53:06:31
    INDEX 01 53:08:42
  TRACK 12 AUDIO
    TITLE "Detunized Gravity"
    PERFORMER "De Phazz"
    INDEX 00 57:42:09
    INDEX 01 57:43:52
  TRACK 13 AUDIO
    TITLE "Free Drift"
    PERFORMER "De Phazz"
    INDEX 00 61:27:63
    INDEX 01 61:29:54
01. Good Boy (live) (5:04)
02. Riddim Wize (4:57)
03. Nameless Life (Ra Poetry) (5:18)
04. Hero Dead And Gone (original album mix) (4:27)
05. No Jive (ripped version) (4:55)
06. Hero Dead And Gone (discotheque mix) (7:26)
07. Good Boy (manmachineman remix) (5:08)
Код:
Код:
PERFORMER "De Phazz"
TITLE "Detunized Gravity CD2 LE"
FILE "cdimage2.ape" WAVE
  TRACK 01 AUDIO
    TITLE "Good Boy (live)"
    PERFORMER "De Phazz"
    INDEX 01 00:00:00
  TRACK 02 AUDIO
    TITLE "Riddim Wize"
    PERFORMER "De Phazz"
    INDEX 00 05:01:68
    INDEX 01 05:04:03
  TRACK 03 AUDIO
    TITLE "Nameless Life (Ra Poetry)"
    PERFORMER "De Phazz"
    INDEX 00 09:59:08
    INDEX 01 10:01:14
  TRACK 04 AUDIO
    TITLE "Hero Dead And Gone (original album mix)"
    PERFORMER "De Phazz"
    INDEX 00 15:17:36
    INDEX 01 15:19:46
  TRACK 05 AUDIO
    TITLE "No Jive (ripped version)"
    PERFORMER "De Phazz"
    INDEX 00 19:44:31
    INDEX 01 19:46:41
  TRACK 06 AUDIO
    TITLE "Hero Dead And Gone (discotheque mix)"
    PERFORMER "De Phazz"
    INDEX 00 24:39:62
    INDEX 01 24:41:73
  TRACK 07 AUDIO
    TITLE "Good Boy (manmachineman remix)"
    PERFORMER "De Phazz"
    INDEX 00 32:06:10
    INDEX 01 32:07:73
Код:
Код:
-----------------------

DON'T MODIFY THIS FILE

-----------------------

PERFORMER: auCDtect Task Manager, ver. 1.6.0 RC1 build 1.6.0.1
Copyright (c) 2008-2010 y-soft. All rights reserved
http:/y-soft.org

ANALYZER: auCDtect: CD records authenticity detector, version 0.8.2
Copyright (c) 2004 Oleg Berngardt. All rights reserved.
Copyright (c) 2004 Alexander Djourik. All rights reserved.

FILE: cdimage2.ape
  Size: 243731328 Hash: 0FD03C00132C58B1629B114B0B8A6C29 Accuracy: -m0
  Conclusion: CDDA 100%
  Signature: D4FBD68DA4C56B046FF91394FD7131250A9B6737
FILE: cdimage1.ape
  Size: 457129776 Hash: 031FB31DA0CAEDA6FC9A53C0526067F6 Accuracy: -m0
  Conclusion: CDDA 100%
  Signature: 9F9774B947406F2DD01F5438285B566C2F6455BC
#77701. The Mambo Craze (4:08)
02. Cafe Coca (4:42)
03. Jazz Music (3:37)
04. Steps Ahead (3:13)
05. Zero Zero (4:02)
06. Happiness (3:44)
07. Squeeze The Trigger (2:45)
08. April Shower (4:47)
09. Godsdog (3:19)
10. Low Budget Hotel (1:50)
11. Time Slips (4:11)
12. Havana Moon (3:11)
13. Information (4:11)
14. Next Message! (4:21)
15. Radio Sol (1:46)
16. Anchorless (5:17)

Продолжитeльнoсть: 00:59:06
Код:
Код:
PERFORMER "De Phazz"
TITLE "Godsdog"
FILE "cdimage.ape" WAVE
  TRACK 01 AUDIO
    TITLE "The Mambo Craze"
    PERFORMER "De Phazz"
    FLAGS DCP
    INDEX 01 00:00:00
  TRACK 02 AUDIO
    TITLE "Cafe Coca"
    PERFORMER "De Phazz"
    FLAGS DCP
    INDEX 01 04:08:17
  TRACK 03 AUDIO
    TITLE "Jazz Music"
    PERFORMER "De Phazz"
    FLAGS DCP
    INDEX 01 08:49:61
  TRACK 04 AUDIO
    TITLE "Steps Ahead"
    PERFORMER "De Phazz"
    FLAGS DCP
    INDEX 00 12:25:07
    INDEX 01 12:27:07
  TRACK 05 AUDIO
    TITLE "Zero Zero"
    PERFORMER "De Phazz"
    FLAGS DCP
    INDEX 00 15:37:64
    INDEX 01 15:39:64
  TRACK 06 AUDIO
    TITLE "Happiness"
    PERFORMER "De Phazz"
    FLAGS DCP
    INDEX 01 19:41:56
  TRACK 07 AUDIO
    TITLE "Squeeze The Trigger"
    PERFORMER "De Phazz"
    FLAGS DCP
    INDEX 01 23:26:17
  TRACK 08 AUDIO
    TITLE "April Shower"
    PERFORMER "De Phazz"
    FLAGS DCP
    INDEX 00 26:09:53
    INDEX 01 26:11:53
  TRACK 09 AUDIO
    TITLE "Godsdog"
    PERFORMER "De Phazz"
    FLAGS DCP
    INDEX 00 30:58:10
    INDEX 01 30:59:10
  TRACK 10 AUDIO
    TITLE "Low Budget Hotel"
    PERFORMER "De Phazz"
    FLAGS DCP
    INDEX 00 34:16:37
    INDEX 01 34:18:37
  TRACK 11 AUDIO
    TITLE "Time Slips"
    PERFORMER "De Phazz"
    FLAGS DCP
    INDEX 01 36:08:70
  TRACK 12 AUDIO
    TITLE "Havana Moon"
    PERFORMER "De Phazz"
    FLAGS DCP
    INDEX 00 40:17:45
    INDEX 01 40:19:45
  TRACK 13 AUDIO
    TITLE "Information"
    PERFORMER "De Phazz"
    FLAGS DCP
    INDEX 00 43:29:06
    INDEX 01 43:31:06
  TRACK 14 AUDIO
    TITLE "Next Message!"
    PERFORMER "De Phazz"
    FLAGS DCP
    INDEX 00 47:40:18
    INDEX 01 47:42:18
  TRACK 15 AUDIO
    TITLE "Radio Sol"
    PERFORMER "De Phazz"
    FLAGS DCP
    INDEX 00 52:02:15
    INDEX 01 52:03:15
  TRACK 16 AUDIO
    TITLE "Anchorless"
    PERFORMER "De Phazz"
    FLAGS DCP
    INDEX 00 53:46:61
    INDEX 01 53:48:61
Код:
Код:
-----------------------

DON'T MODIFY THIS FILE

-----------------------

PERFORMER: auCDtect Task Manager, ver. 1.6.0 RC1 build 1.6.0.1
Copyright (c) 2008-2010 y-soft. All rights reserved
http:/y-soft.org

ANALYZER: auCDtect: CD records authenticity detector, version 0.8.2
Copyright (c) 2004 Oleg Berngardt. All rights reserved.
Copyright (c) 2004 Alexander Djourik. All rights reserved.

FILE: cdimage.ape
  Size: 372224632 Hash: 81468607A76DD74F97EA8E97878EE514 Accuracy: -m0
  Conclusion: CDDA 100%
  Signature: AF52333CECE105769EB51837FB15A76A749B661A
#77701. Heartfixer (3:32)
02. Something Special (4:16)
03. Nu Chic (4:15)
04. Sabbatical (3:54)
05. Better Now (2:58)
06. Death By Chocolate (4:42)
07. Jeunesse Dorйe (3:50)
08. Online (5:18)
09. Jim The Jinn (3:22)
10. Roy's Choice (4:09)
11. Trash Box (4:11)
12. Jump Over (4:34)
13. Maybe San Josй (3:35)
14. Love's Labour's Lost (5:26)
15. North West (4:47)
16. Saw It On The Radio (1:47)
Продолжитeльнoсть: 01:04:35
Код:
Код:
PERFORMER "De Phazz"
TITLE "Death By Chocolate"
FILE "cdimage.ape" WAVE
  TRACK 01 AUDIO
    TITLE "Heartfixer"
    PERFORMER "De Phazz"
    INDEX 01 00:00:00
  TRACK 02 AUDIO
    TITLE "Something Special"
    PERFORMER "De Phazz"
    INDEX 01 03:31:54
  TRACK 03 AUDIO
    TITLE "Nu Chic"
    PERFORMER "De Phazz"
    INDEX 00 07:46:12
    INDEX 01 07:48:13
  TRACK 04 AUDIO
    TITLE "Sabbatical"
    PERFORMER "De Phazz"
    INDEX 00 12:00:67
    INDEX 01 12:02:68
  TRACK 05 AUDIO
    TITLE "Better Now"
    PERFORMER "De Phazz"
    INDEX 00 15:54:40
    INDEX 01 15:56:41
  TRACK 06 AUDIO
    TITLE "Death By Chocolate"
    PERFORMER "De Phazz"
    INDEX 00 18:54:11
    INDEX 01 18:54:12
  TRACK 07 AUDIO
    TITLE "Jeunesse Dorйe"
    PERFORMER "De Phazz"
    INDEX 00 23:35:23
    INDEX 01 23:36:24
  TRACK 08 AUDIO
    TITLE "Online"
    PERFORMER "De Phazz"
    INDEX 00 27:25:27
    INDEX 01 27:26:29
  TRACK 09 AUDIO
    TITLE "Jim The Jinn"
    PERFORMER "De Phazz"
    INDEX 00 32:42:03
    INDEX 01 32:44:04
  TRACK 10 AUDIO
    TITLE "Roy's Choice"
    PERFORMER "De Phazz"
    INDEX 00 36:05:46
    INDEX 01 36:05:47
  TRACK 11 AUDIO
    TITLE "Trash Box"
    PERFORMER "De Phazz"
    INDEX 00 40:13:10
    INDEX 01 40:14:11
  TRACK 12 AUDIO
    TITLE "Jump Over"
    PERFORMER "De Phazz"
    INDEX 00 44:25:28
    INDEX 01 44:25:29
  TRACK 13 AUDIO
    TITLE "Maybe San Josй"
    PERFORMER "De Phazz"
    INDEX 01 48:59:54
  TRACK 14 AUDIO
    TITLE "Love's Labour's Lost"
    PERFORMER "De Phazz"
    INDEX 00 52:34:40
    INDEX 01 52:34:41
  TRACK 15 AUDIO
    TITLE "North West"
    PERFORMER "De Phazz"
    INDEX 00 58:00:25
    INDEX 01 58:00:26
  TRACK 16 AUDIO
    TITLE "Saw It On The Radio"
    PERFORMER "De Phazz"
    INDEX 00 62:42:47
    INDEX 01 62:47:53
Код:
Код:
-----------------------

DON'T MODIFY THIS FILE

-----------------------

PERFORMER: auCDtect Task Manager, ver. 1.6.0 RC1 build 1.6.0.1
Copyright (c) 2008-2010 y-soft. All rights reserved
http:/y-soft.org

ANALYZER: auCDtect: CD records authenticity detector, version 0.8.2
Copyright (c) 2004 Oleg Berngardt. All rights reserved.
Copyright (c) 2004 Alexander Djourik. All rights reserved.

FILE: cdimage.ape
  Size: 440624220 Hash: 73DC5BF61130BAA5D9823CDE82CC3772 Accuracy: -m0
  Conclusion: CDDA 100%
  Signature: 9995D7CFFC6487A817F318C2218C7B7468B1BAC0
#77701. Looks (4:03)
02. You Stayed (4:08)
03. What's Behind? (4:39)
04. Wrong Dance (2:59)
05. Atomic Coctail (3:08)
06. Cup Of Hope (1:01)
07. True North (4:05)
08. Almost Gone (1:13)
09. Nightmare (3:39)
10. Preachin' To The Choir (4:11)
11. Try (3:36)
12. Dummes Spiel (3:46)
13. Things & Times (1:44)
14. Belle De Jour (3:43)
15. Wait (3:43)
16. Down The Railroad (2:50)
17. Desert D'Amour (4:01)
18. Style (4:51)
19. Word In A Rhyme (5:04)
20. Jean-Mi (2:03)

Продолжитeльнoсть: 01:08:26
Код:
Код:
CATALOG 0044001881725
PERFORMER "De Phazz"
TITLE "Daily Lama"
FILE "cdimage.ape" WAVE
  TRACK 01 AUDIO
    TITLE "Looks"
    PERFORMER "De Phazz"
    ISRC DEN120205773
    INDEX 01 00:00:00
  TRACK 02 AUDIO
    TITLE "You Stayed"
    PERFORMER "De Phazz"
    INDEX 00 04:02:49
    INDEX 01 04:02:51
  TRACK 03 AUDIO
    TITLE "What's Behind?"
    PERFORMER "De Phazz"
    INDEX 00 08:09:20
    INDEX 01 08:10:21
  TRACK 04 AUDIO
    TITLE "Wrong Dance"
    PERFORMER "De Phazz"
    INDEX 00 12:47:29
    INDEX 01 12:49:30
  TRACK 05 AUDIO
    TITLE "Atomic Coctail"
    PERFORMER "De Phazz"
    INDEX 00 15:46:62
    INDEX 01 15:48:63
  TRACK 06 AUDIO
    TITLE "Cup Of Hope"
    PERFORMER "De Phazz"
    INDEX 00 18:54:34
    INDEX 01 18:56:37
  TRACK 07 AUDIO
    TITLE "True North"
    PERFORMER "De Phazz"
    INDEX 00 19:56:71
    INDEX 01 19:57:28
  TRACK 08 AUDIO
    TITLE "Almost Gone"
    PERFORMER "De Phazz"
    INDEX 00 24:02:12
    INDEX 01 24:02:15
  TRACK 09 AUDIO
    TITLE "Nightmare"
    PERFORMER "De Phazz"
    INDEX 00 25:15:50
    INDEX 01 25:15:52
  TRACK 10 AUDIO
    TITLE "Preachin' To The Choir"
    PERFORMER "De Phazz"
    INDEX 00 28:52:14
    INDEX 01 28:54:17
  TRACK 11 AUDIO
    TITLE "Try"
    PERFORMER "De Phazz"
    INDEX 00 33:03:13
    INDEX 01 33:05:16
  TRACK 12 AUDIO
    TITLE "Dummes Spiel"
    PERFORMER "De Phazz"
    INDEX 00 36:39:52
    INDEX 01 36:41:53
  TRACK 13 AUDIO
    TITLE "Things & Times"
    PERFORMER "De Phazz"
    INDEX 00 40:25:65
    INDEX 01 40:27:67
  TRACK 14 AUDIO
    TITLE "Belle De Jour"
    PERFORMER "De Phazz"
    INDEX 00 42:09:33
    INDEX 01 42:11:35
  TRACK 15 AUDIO
    TITLE "Wait"
    PERFORMER "De Phazz"
    INDEX 00 45:52:35
    INDEX 01 45:54:38
  TRACK 16 AUDIO
    TITLE "Down The Railroad"
    PERFORMER "De Phazz"
    INDEX 00 49:35:35
    INDEX 01 49:37:37
  TRACK 17 AUDIO
    TITLE "Desert D'Amour"
    PERFORMER "De Phazz"
    INDEX 00 52:27:26
    INDEX 01 52:27:29
  TRACK 18 AUDIO
    TITLE "Style"
    PERFORMER "De Phazz"
    INDEX 00 56:26:30
    INDEX 01 56:28:32
  TRACK 19 AUDIO
    TITLE "Word In A Rhyme"
    PERFORMER "De Phazz"
    INDEX 00 61:16:68
    INDEX 01 61:18:70
  TRACK 20 AUDIO
    TITLE "Jean-Mi"
    PERFORMER "De Phazz"
    INDEX 00 66:14:45
    INDEX 01 66:22:48
Код:
Код:
-----------------------

DON'T MODIFY THIS FILE

-----------------------

PERFORMER: auCDtect Task Manager, ver. 1.6.0 RC1 build 1.6.0.1
Copyright (c) 2008-2010 y-soft. All rights reserved
http:/y-soft.org

ANALYZER: auCDtect: CD records authenticity detector, version 0.8.2
Copyright (c) 2004 Oleg Berngardt. All rights reserved.
Copyright (c) 2004 Alexander Djourik. All rights reserved.

FILE: cdimage.ape
  Size: 456144456 Hash: 3BEC879C2790FC750744DA95B592125B Accuracy: -m0
  Conclusion: CDDA 100%
  Signature: 6341482F9C71D5F0923D1D67F1DF82C98730BE34
#77701. Love Set You Going [de-phazz vs. Lahr mix] (5:10)
02. Nameless Life [RaPoetry] (5:14)
03. The Mambo Craze [swing mix] (3:14)
04. Riddim Wize (4:53)
05. Hero Dead And Gone [reversed mix] (4:36)
06. Downtown Tazacorte (2:26)
07. Jazz Music [strings] (3:33)
08. Radio Sol (1:43)
09. Plastic Love Memory [no. nine] (4:37)
10. Good Boy [Stepin' Nerve mix] (5:54)
11. Drop Down Low (3:46)
12. No Jive [ripped version] (4:31)
13. Good Boy [ManMachineMan rmx] (7:25)
14. Hero Dead And Gone [discotheque mix] (4:55)
15. The Mambo Craze [Ur Craze rmx] (3:34)
Продолжитeльнoсть: 01:05:30
Код:
Код:
REM GENRE "Acid Jazz"
REM DATE 2002
REM DISCID D60F5A0F
REM COMMENT "ExactAudioCopy v0.95b4"
PERFORMER "de-Phazz"
TITLE "Plastic Love Memory"
FILE "de-Phazz - Plastic Love Memory.ape" WAVE
  TRACK 01 AUDIO
    TITLE "Love Set You Going [de-phazz vs. Lahr mix]"
    PERFORMER "de-Phazz"
    FLAGS DCP
    INDEX 01 00:00:00
  TRACK 02 AUDIO
    TITLE "Nameless Life [RaPoetry]"
    PERFORMER "de-Phazz"
    FLAGS DCP
    INDEX 01 05:09:43
  TRACK 03 AUDIO
    TITLE "The Mambo Craze [swing mix]"
    PERFORMER "de-Phazz"
    FLAGS DCP
    INDEX 01 10:23:36
  TRACK 04 AUDIO
    TITLE "Riddim Wize"
    PERFORMER "de-Phazz"
    FLAGS DCP
    INDEX 01 13:37:35
  TRACK 05 AUDIO
    TITLE "Hero Dead And Gone [reversed mix]"
    PERFORMER "de-Phazz"
    FLAGS DCP
    INDEX 01 18:30:58
  TRACK 06 AUDIO
    TITLE "Downtown Tazacorte"
    PERFORMER "de-Phazz"
    FLAGS DCP
    INDEX 01 23:06:68
  TRACK 07 AUDIO
    TITLE "Jazz Music [strings]"
    PERFORMER "de-Phazz"
    FLAGS DCP
    INDEX 01 25:33:18
  TRACK 08 AUDIO
    TITLE "Radio Sol"
    PERFORMER "de-Phazz"
    FLAGS DCP
    INDEX 01 29:06:33
  TRACK 09 AUDIO
    TITLE "Plastic Love Memory [no. nine]"
    PERFORMER "de-Phazz"
    FLAGS DCP
    INDEX 01 30:49:32
  TRACK 10 AUDIO
    TITLE "Good Boy [Stepin' Nerve mix]"
    PERFORMER "de-Phazz"
    FLAGS DCP
    INDEX 01 35:25:70
  TRACK 11 AUDIO
    TITLE "Drop Down Low"
    PERFORMER "de-Phazz"
    FLAGS DCP
    INDEX 01 41:20:15
  TRACK 12 AUDIO
    TITLE "No Jive [ripped version]"
    PERFORMER "de-Phazz"
    FLAGS DCP
    INDEX 01 45:06:14
  TRACK 13 AUDIO
    TITLE "Good Boy [ManMachineMan rmx]"
    PERFORMER "de-Phazz"
    FLAGS DCP
    INDEX 01 49:36:57
  TRACK 14 AUDIO
    TITLE "Hero Dead And Gone [discotheque mix]"
    PERFORMER "de-Phazz"
    FLAGS DCP
    INDEX 01 57:01:41
  TRACK 15 AUDIO
    TITLE "The Mambo Craze [Ur Craze rmx]"
    PERFORMER "de-Phazz"
    FLAGS DCP
    INDEX 01 61:56:32
Код:
Код:
-----------------------

DON'T MODIFY THIS FILE

-----------------------

PERFORMER: auCDtect Task Manager, ver. 1.6.0 RC1 build 1.6.0.1
Copyright (c) 2008-2010 y-soft. All rights reserved
http:/y-soft.org

ANALYZER: auCDtect: CD records authenticity detector, version 0.8.2
Copyright (c) 2004 Oleg Berngardt. All rights reserved.
Copyright (c) 2004 Alexander Djourik. All rights reserved.

FILE: de-Phazz - Plastic Love Memory.ape
  Size: 428760040 Hash: F7BC32282AE12DBF830A85A96F0008BC Accuracy: -m0
  Conclusion: CDDA 100%
  Signature: 60476AF4786835C84C1F14A89F8CC2BB8CEAF038
#77701. un ange passe (3:43)
02. waste of words (4:17)
03. astrud astronette (3:26)
04. stumble (3:46)
05. depression royale (2:44)
06. eternity is... (3:23)
07. rise and shine (4:58)
08. excursion en mer (4:29)
09. love is natural (3:57)
10. car eats town (4:34)
11. keep it simple (4:23)
12. who the pop cares (1:55)
13. backstreets of my mind (3:50)
14. multicoloured destiny (3:52)
15. make heaven my home (3:45)
16. message ttc (3:37)
17. close to jazz (2:21)
18. garbo goodbye (3:49)

Продолжитeльнoсть: 01:06:50
Код:
Код:
PERFORMER "de-phazz"
TITLE "natural fake"
FILE "CDImage.ape" WAVE
  TRACK 01 AUDIO
    TITLE "un ange passe"
    PERFORMER "de-phazz"
    INDEX 01 00:00:00
  TRACK 02 AUDIO
    TITLE "waste of words"
    PERFORMER "de-phazz"
    INDEX 01 03:42:42
  TRACK 03 AUDIO
    TITLE "astrud astronette"
    PERFORMER "de-phazz"
    INDEX 00 07:58:19
    INDEX 01 07:59:19
  TRACK 04 AUDIO
    TITLE "stumble"
    PERFORMER "de-phazz"
    INDEX 00 11:24:47
    INDEX 01 11:25:47
  TRACK 05 AUDIO
    TITLE "depression royale"
    PERFORMER "de-phazz"
    INDEX 00 15:09:47
    INDEX 01 15:11:47
  TRACK 06 AUDIO
    TITLE "eternity is..."
    PERFORMER "de-phazz"
    INDEX 01 17:55:71
  TRACK 07 AUDIO
    TITLE "rise and shine"
    PERFORMER "de-phazz"
    INDEX 00 21:17:03
    INDEX 01 21:19:03
  TRACK 08 AUDIO
    TITLE "excursion en mer"
    PERFORMER "de-phazz"
    INDEX 00 26:15:31
    INDEX 01 26:17:31
  TRACK 09 AUDIO
    TITLE "love is natural"
    PERFORMER "de-phazz"
    INDEX 01 30:46:67
  TRACK 10 AUDIO
    TITLE "car eats town"
    PERFORMER "de-phazz"
    INDEX 01 34:44:27
  TRACK 11 AUDIO
    TITLE "keep it simple"
    PERFORMER "de-phazz"
    INDEX 00 39:16:35
    INDEX 01 39:18:35
  TRACK 12 AUDIO
    TITLE "who the pop cares"
    PERFORMER "de-phazz"
    INDEX 01 43:41:47
  TRACK 13 AUDIO
    TITLE "backstreets of my mind"
    PERFORMER "de-phazz"
    INDEX 00 45:34:40
    INDEX 01 45:36:39
  TRACK 14 AUDIO
    TITLE "multicoloured destiny"
    PERFORMER "de-phazz"
    INDEX 00 49:24:72
    INDEX 01 49:26:72
  TRACK 15 AUDIO
    TITLE "make heaven my home"
    PERFORMER "de-phazz"
    INDEX 00 53:16:37
    INDEX 01 53:18:37
  TRACK 16 AUDIO
    TITLE "message ttc"
    PERFORMER "de-phazz"
    INDEX 00 57:01:28
    INDEX 01 57:03:28
  TRACK 17 AUDIO
    TITLE "close to jazz"
    PERFORMER "de-phazz"
    INDEX 01 60:40:14
  TRACK 18 AUDIO
    TITLE "garbo goodbye"
    PERFORMER "de-phazz"
    INDEX 01 63:01:40
Код:
Код:
-----------------------

DON'T MODIFY THIS FILE

-----------------------

PERFORMER: auCDtect Task Manager, ver. 1.6.0 RC1 build 1.6.0.1
Copyright (c) 2008-2010 y-soft. All rights reserved
http:/y-soft.org

ANALYZER: auCDtect: CD records authenticity detector, version 0.8.2
Copyright (c) 2004 Oleg Berngardt. All rights reserved.
Copyright (c) 2004 Alexander Djourik. All rights reserved.

FILE: CDImage.ape
  Size: 459746028 Hash: 0DCBC40FC708306B519DE95F012A9EF2 Accuracy: -m0
  Conclusion: CDDA 100%
  Signature: CE9E1C85F09D3FA3535E340D0CA53BC8CD52A6D7
#77701. Twang (0:32)
02. Boogie Philosophy (3:15)
03. Nonsensical Thing (3:51)
04. Hell Alright (3:14)
05. Better World (2:45)
06. Petit Bastard (2:33)
07. It Will Turn Out Right (4:15)
08. Devils Music (2:27)
09. Dancing With My Hands (3:26)
10. How High The Hat (2:02)
11. My Society (3:39)
12. RocknRoll Dude (1:58)
13. Shadow Of A Lie (3:13)
14. Whats The Use Of...? (2:39)
15. 105 FM Jam (3:53)
16. Devils Music Reprise #58 (0:59)

Продолжитeльнoсть: 00:44:42
Код:
Код:
PERFORMER "De Phazz"
TITLE "Days Of Twang"
REM GENRE Lo-Fi
REM DATE 2007
REM DISCID C30A7910
REM COMMENT "ExactAudioCopy v0.95b4"
CATALOG 4260082360270
FILE "cdimage.ape" WAVE
  TRACK 01 AUDIO
    TITLE "Twang"
    PERFORMER "De Phazz"
    ISRC DEAP70710000
    INDEX 01 00:00:00
  TRACK 02 AUDIO
    TITLE "Boogie Philosophy"
    PERFORMER "De Phazz"
    ISRC DEAP70710001
    INDEX 01 00:32:07
  TRACK 03 AUDIO
    TITLE "Nonsensical Thing"
    PERFORMER "De Phazz"
    ISRC DEAP70710002
    INDEX 00 03:45:67
    INDEX 01 03:46:60
  TRACK 04 AUDIO
    TITLE "Hell Alright"
    PERFORMER "De Phazz"
    ISRC DEAP70710003
    INDEX 00 07:37:66
    INDEX 01 07:38:13
  TRACK 05 AUDIO
    TITLE "Better World"
    PERFORMER "De Phazz"
    ISRC DEAP70710004
    INDEX 01 10:52:48
  TRACK 06 AUDIO
    TITLE "Petit Bastard"
    PERFORMER "De Phazz"
    ISRC DEAP70710005
    INDEX 01 13:37:44
  TRACK 07 AUDIO
    TITLE "It Will Turn Out Right"
    PERFORMER "De Phazz"
    ISRC DEAP70710006
    INDEX 00 16:09:59
    INDEX 01 16:10:69
  TRACK 08 AUDIO
    TITLE "Devils Music"
    PERFORMER "De Phazz"
    ISRC DEAP70710007
    INDEX 01 20:26:08
  TRACK 09 AUDIO
    TITLE "Dancing With My Hands"
    PERFORMER "De Phazz"
    ISRC DEAP70710008
    INDEX 01 22:52:54
  TRACK 10 AUDIO
    TITLE "How High The Hat"
    PERFORMER "De Phazz"
    ISRC DEAP70710009
    INDEX 01 26:18:64
  TRACK 11 AUDIO
    TITLE "My Society"
    PERFORMER "De Phazz"
    ISRC DEAP70710010
    INDEX 00 28:20:16
    INDEX 01 28:21:23
  TRACK 12 AUDIO
    TITLE "RocknRoll Dude"
    PERFORMER "De Phazz"
    ISRC DEAP70710011
    INDEX 00 32:00:00
    INDEX 01 32:00:38
  TRACK 13 AUDIO
    TITLE "Shadow Of A Lie"
    PERFORMER "De Phazz"
    ISRC DEAP70710012
    INDEX 00 33:56:65
    INDEX 01 33:58:03
  TRACK 14 AUDIO
    TITLE "Whats The Use Of...?"
    PERFORMER "De Phazz"
    ISRC DEAP70710013
    INDEX 01 37:10:72
  TRACK 15 AUDIO
    TITLE "105 FM Jam"
    PERFORMER "De Phazz"
    ISRC DEAP70710014
    INDEX 00 39:50:02
    INDEX 01 39:50:09
  TRACK 16 AUDIO
    TITLE "Devils Music Reprise #58"
    PERFORMER "De Phazz"
    ISRC DEAP70710015
    INDEX 00 43:36:51
    INDEX 01 43:43:13
Код:
Код:
-----------------------

DON'T MODIFY THIS FILE

-----------------------

PERFORMER: auCDtect Task Manager, ver. 1.6.0 RC1 build 1.6.0.1
Copyright (c) 2008-2010 y-soft. All rights reserved
http:/y-soft.org

ANALYZER: auCDtect: CD records authenticity detector, version 0.8.2
Copyright (c) 2004 Oleg Berngardt. All rights reserved.
Copyright (c) 2004 Alexander Djourik. All rights reserved.

FILE: cdimage.ape
  Size: 290394912 Hash: 1F4AD34AFD7AE3B443DF80E5137FF953 Accuracy: -m0
  Conclusion: CDDA 100%
  Signature: 87E19E179E9E4B7FDDF698105A8955232278414D
+

Карл Фрирсон (Karl Frierson) - это не просто голос De Phazz, точнее один из многих голосов этого "открытого проекта", меняющегося от альбома к альбому, и не только одна из самых стабильных вокальных единиц коллектива, но и постоянный автор музыки и текстов, которому De Phazz обязан не одним десятком отличных номеров.
#77701. Young rebel (4:06)
02. Down home southern groove (4:35)
03. Freaklife (4:09)
04. Goodthang (4:49)
05. Lucky luvah (5:00)
06. Only you (4:12)
07. Tall green grass (3:37)
08. Ten minutes (3:25)
09. Under investigation (3:53)
10. Walkin in new york (3:25)

Продолжитeльнoсть: 00:41:12
Код:
Код:
REM DATE 2006
REM DISCID 7209A80A
REM COMMENT "ExactAudioCopy v0.99pb3"
PERFORMER "Karl Frierson"
TITLE "Soulprint"
FILE "Karl Frierson - Soulprint.ape" WAVE
  TRACK 01 AUDIO
    TITLE "Track01"
    PERFORMER "Karl Frierson"
    INDEX 01 00:00:00
  TRACK 02 AUDIO
    TITLE "Track02"
    PERFORMER "Karl Frierson"
    INDEX 01 04:06:26
  TRACK 03 AUDIO
    TITLE "Track03"
    PERFORMER "Karl Frierson"
    INDEX 01 08:41:41
  TRACK 04 AUDIO
    TITLE "Track04"
    PERFORMER "Karl Frierson"
    INDEX 01 12:50:32
  TRACK 05 AUDIO
    TITLE "Track05"
    PERFORMER "Karl Frierson"
    INDEX 01 17:39:54
  TRACK 06 AUDIO
    TITLE "Track06"
    PERFORMER "Karl Frierson"
    INDEX 01 22:40:04
  TRACK 07 AUDIO
    TITLE "Track07"
    PERFORMER "Karl Frierson"
    INDEX 01 26:51:72
  TRACK 08 AUDIO
    TITLE "Track08"
    PERFORMER "Karl Frierson"
    INDEX 01 30:29:00
  TRACK 09 AUDIO
    TITLE "Track09"
    PERFORMER "Karl Frierson"
    INDEX 01 33:53:45
  TRACK 10 AUDIO
    TITLE "Track10"
    PERFORMER "Karl Frierson"
    INDEX 01 37:46:50
Код:
Код:
-----------------------

DON'T MODIFY THIS FILE

-----------------------

PERFORMER: auCDtect Task Manager, ver. 1.6.0 RC1 build 1.6.0.1
Copyright (c) 2008-2010 y-soft. All rights reserved
http:/y-soft.org

ANALYZER: auCDtect: CD records authenticity detector, version 0.8.2
Copyright (c) 2004 Oleg Berngardt. All rights reserved.
Copyright (c) 2004 Alexander Djourik. All rights reserved.

FILE: Karl Frierson - Soulprint.ape
  Size: 294673706 Hash: 3D803D2C30B0531C84268C79AD8C51D5 Accuracy: -m0
  Conclusion: CDDA 100%
  Signature: 220FDC718640FA42F3A2C3A7E8B6887DCE54A9EA

Правила, инструкции, FAQ!!!
Торрент  Добавлен [05 сен 2015, 23:17] Скачать торрент Магнет ссылка
Скачать торрент
[ Размер 20.09 КБ / Просмотров 180 ]

Статус
Проверен 
 
Размер  3.24 ГБ
Приватный: Нет (DHT включён)
.torrent скачан  9
Как залить торрент? | Как скачать Torrent? | Ошибка в торренте? Качайте магнет  


     Отправить личное сообщение
   
Страница 1 из 1
Показать сообщения за:  Поле сортировки  
Начать новую тему Ответить на тему


Сейчас этот форум просматривают: нет зарегистрированных пользователей и гости: 0


Вы не можете начинать темы
Вы не можете отвечать на сообщения
Вы не можете редактировать свои сообщения
Вы не можете удалять свои сообщения
Вы не можете добавлять вложения

Перейти:  
Ресурс не предоставляет электронные версии произведений, а занимается лишь коллекционированием и каталогизацией ссылок, присылаемых и публикуемых на форуме нашими читателями. Если вы являетесь правообладателем какого-либо представленного материала и не желаете чтобы ссылка на него находилась в нашем каталоге, свяжитесь с нами и мы незамедлительно удалим её. Файлы для обмена на трекере предоставлены пользователями сайта, и администрация не несёт ответственности за их содержание. Просьба не заливать файлы, защищенные авторскими правами, а также файлы нелегального содержания!