Начать новую тему Ответить на тему
Статистика раздачи
Размер: 807.44 МБ | Добавлен: 10 июл 2019, 09:02 | Скачали: 0
Сидеров: 36  [0 байт/сек]    Личеров: 12  [0 байт/сек]
Пред. тема | След. тема 

Автор
Сообщение

СообщениеДобавлено: 10 июл 2019, 09:02 

Ответить с цитатой 


Collection 2015-2017
Страна исполнителя: UK

Жанр: Progressive Rock, Crossover Prog, Hard Rock, Psychedelic/Space Rock || Аудио кодек: FLAC || Тип рипа: (tracks) ||
Битрейт аудио: lossless || Включает: Artwork, jpg, pdf || Источник: WEB, собственная покупка ||
Общая длительность:02:16:56 ||
Трэклист:
1. Lost Village (4:01)
2. Out of the Wilderness (1:52)
3. Cometh the Hour... (4:49)
4. Like Circe's Feast (2:34)
5. Ronin (6:10)
6. And She Was There (3:48)
7. Amongst The Shades (1:53)
8. Wisdom of the Magus (2:15)
9. Vengeance Calls (2:53)
10. Temple Settlement (5:57)
11. Threnody (4:35)
12. The End of the Beginning (5:18)
Total time: 46:09
released October 31, 2015
Состав:
- Gordon Midgley / vocals, guitars, bass, keyboards
+
- Selena Jay / vocals (4,6,7)
- Nathan Jon Tillett / artwork, vocals (1,2,7,10,12)
Код:
-----------------------
DON'T MODIFY THIS FILE
-----------------------
PERFORMER: auCDtect Task Manager, ver. 1.5.1RC4 build 1.5.1.5
Copyright (c) 2008-2010 y-soft. All rights reserved
[url=http://y-soft.org]http://y-soft.org[/url]
ANALYZER: auCDtect: CD records authenticity detector, version 0.8.2
Copyright (c) 2004 Oleg Berngardt. All rights reserved.
Copyright (c) 2004 Alexander Djourik. All rights reserved.
FILE: Gordon Midgley - Vanished Age - 12 The End of the Beginning.flac
  Size: 24849763 Hash: ADEB5E2B7E167917F28314CFEDB4B5E9 Accuracy: -m8
  Conclusion: CDDA 100%
  Signature: DB9D462767194F0D3AA3C2FDB10B13049D883936
FILE: Gordon Midgley - Vanished Age - 11 Threnody.flac
  Size: 23322141 Hash: F00BC7777341A829E6446CB5755B13F3 Accuracy: -m8
  Conclusion: CDDA 100%
  Signature: 88081DBBDFAC65AEF983CCB3B12E27D4C0A02681
FILE: Gordon Midgley - Vanished Age - 10 Temple Settlement.flac
  Size: 40281312 Hash: 4A5A282E03BB12EF9BB609E8E8F26256 Accuracy: -m8
  Conclusion: CDDA 100%
  Signature: 7A291EE296C148DE06F0CE9FFDD7275BB3886FD8
FILE: Gordon Midgley - Vanished Age - 09 Vengeance Calls.flac
  Size: 14362988 Hash: 5E7EE569F73C3F12AF72FBCE27F649E9 Accuracy: -m8
  Conclusion: CDDA 100%
  Signature: 2A85F24D620FDD177BB4F961DF74000F98D47E99
FILE: Gordon Midgley - Vanished Age - 08 Wisdom of the Magus.flac
  Size: 10591951 Hash: B80D19BD758145B66BCC02301117BAED Accuracy: -m8
  Conclusion: CDDA 100%
  Signature: 8CB8554095841A4A172FDAC84D4DD613FAF598C4
FILE: Gordon Midgley - Vanished Age - 07 Amongst The Shades.flac
  Size: 7169586 Hash: 182A80F49789479C3A815D46615767BC Accuracy: -m8
  Conclusion: CDDA 85%
  Signature: 0E35FCF1791E5E40D8DE102CB15843BE22D7A628
FILE: Gordon Midgley - Vanished Age - 06 And She Was There.flac
  Size: 19390232 Hash: 1AA9EF7F492FBC73C62EA3DE5BDF7633 Accuracy: -m8
  Conclusion: CDDA 100%
  Signature: CD0A941D5A49974C1AC71F3C1D48032ABDD912CF
FILE: Gordon Midgley - Vanished Age - 05 Ronin.flac
  Size: 36359193 Hash: 3660D4070F66A709BAB5E850BC77D5F7 Accuracy: -m8
  Conclusion: CDDA 100%
  Signature: C890A618C597824C44296F36AB74669C27F006E6
FILE: Gordon Midgley - Vanished Age - 04 Like Circe's Feast.flac
  Size: 12524791 Hash: 699909BC39B7A276CB22FC33E7861A1F Accuracy: -m8
  Conclusion: CDDA 100%
  Signature: 302F6730729A72970128FFB6CF1AA7F66B10A7A3
FILE: Gordon Midgley - Vanished Age - 03 Cometh the Hour....flac
  Size: 25979126 Hash: C936D5AD0FF97A7C83FE0B013B8A803F Accuracy: -m8
  Conclusion: CDDA 100%
  Signature: D33364D8E2E7C270E71ED4D74FBAD0D0CE919123
FILE: Gordon Midgley - Vanished Age - 02 Out of the Wilderness.flac
  Size: 7504930 Hash: 614D4C308568BD8AFB6EEE32DD1950A2 Accuracy: -m8
  Conclusion: CDDA 94%
  Signature: F8164A2BFCF5575C7919D609B7C03E90E9A54360
FILE: Gordon Midgley - Vanished Age - 01 Lost Village.flac
  Size: 20589308 Hash: B0B1D69B0CCCE825020589212AD6EC79 Accuracy: -m8
  Conclusion: CDDA 100%
  Signature: 034C6D7BBBA7EF415AF0D1704043E4620576DF50
Код:
foobar2000 1.3.16 / Замер динамического диапазона (DR) 1.1.1
Дата отчёта:  2019-07-08 14:23:48
--------------------------------------------------------------------------------
Анализ:   Gordon Midgley / Vanished Age
--------------------------------------------------------------------------------
DR         Пики         RMS           Продолжительность трека
--------------------------------------------------------------------------------
DR10      -0.07 дБ   -14.67 дБ      4:02 01-Lost Village
DR12      -0.09 дБ   -17.23 дБ      1:52 02-Out of the Wilderness
DR11       0.00 дБ   -14.14 дБ      4:50 03-Cometh the Hour...
DR12       0.00 дБ   -15.64 дБ      2:34 04-Like Circe's Feast
DR11       0.00 дБ   -13.88 дБ      6:10 05-Ronin
DR11      -7.60 дБ   -23.55 дБ      3:48 06-And She Was There
DR10      -3.23 дБ   -18.54 дБ      1:53 07-Amongst The Shades
DR11      -8.04 дБ   -22.69 дБ      2:15 08-Wisdom of the Magus
DR12      -0.09 дБ   -14.75 дБ      2:54 09-Vengeance Calls
DR9        0.00 дБ   -11.43 дБ      5:57 10-Temple Settlement
DR10      -0.05 дБ   -13.67 дБ      4:35 11-Threnody
DR9        0.00 дБ   -13.48 дБ      5:19 12-The End of the Beginning
--------------------------------------------------------------------------------
Количество треков: 12
Реальные значения DR: DR11
Частота:   44100 Гц
Каналов:   2
Разрядность:   16
Битрейт:   624 кбит/с
Кодек:   FLAC
================================================================================
#777Трэклист:
1. Horizon Lost (2:30)
2. Longest Night (3:36)
3. First Rays (3:06)
Total time: 9:12
released April 14, 2016
Состав:
- Gordon Midgley / all instruments
+
- Martin Kirwan / music (2)
Код:
-----------------------
DON'T MODIFY THIS FILE
-----------------------
PERFORMER: auCDtect Task Manager, ver. 1.5.1RC4 build 1.5.1.5
Copyright (c) 2008-2010 y-soft. All rights reserved
[url=http://y-soft.org]http://y-soft.org[/url]
ANALYZER: auCDtect: CD records authenticity detector, version 0.8.2
Copyright (c) 2004 Oleg Berngardt. All rights reserved.
Copyright (c) 2004 Alexander Djourik. All rights reserved.
FILE: Gordon Midgley - Out of Doors - 03 First Rays.flac
  Size: 17768897 Hash: 40B77D3A17D96B7F7576423636BD3BDD Accuracy: -m8
  Conclusion: CDDA 100%
  Signature: FBC919308C7DB3BD88C6EF81572EEAB830AA5718
FILE: Gordon Midgley - Out of Doors - 02 Longest Night.flac
  Size: 22799949 Hash: E5BE741B4C5869AC3DDFE5F5B29AC3DB Accuracy: -m8
  Conclusion: CDDA 100%
  Signature: 8C35C38268B915E95D2BB5A155C8357F4B6AC5CD
FILE: Gordon Midgley - Out of Doors - 01 Horizon Lost.flac
  Size: 12305807 Hash: E4F692F3F2F746D2FC9304FC4031EED4 Accuracy: -m8
  Conclusion: CDDA 100%
  Signature: 3B7AFCF30D2D435945FE2FA6976A0250424F3395
Код:
foobar2000 1.3.16 / Замер динамического диапазона (DR) 1.1.1
Дата отчёта:  2019-07-08 09:43:36
--------------------------------------------------------------------------------
Анализ:   Gordon Midgley / Out of Doors
--------------------------------------------------------------------------------
DR         Пики         RMS           Продолжительность трека
--------------------------------------------------------------------------------
DR9        0.00 дБ   -13.99 дБ      2:30 01-Horizon Lost
DR11       0.00 дБ   -13.55 дБ      3:36 02-Longest Night
DR12       0.00 дБ   -16.48 дБ      3:07 03-First Rays
--------------------------------------------------------------------------------
Количество треков: 3
Реальные значения DR: DR11
Частота:   44100 Гц
Каналов:   2
Разрядность:   16
Битрейт:   756 кбит/с
Кодек:   FLAC
================================================================================
#777Трэклист:
1. Painful Memories 8:10
2. Last Rays 6:42
3. Doctor's Warning 4:40
4. Roderick Usher 6:42
5. Witness 9:12
6. Haunted Palace 2:52
7. Announcement 7:38
8. Storm 4:34
9. Escapist Tales 4:32
10. The Fall 14:08
Bonus Video:
11. Commentary 12:25
Total time: 01:21:35
released September 22, 2017
Состав:
- Gordon Midgley / vocals, guitars, bass, keyboards
+
- Gary Reeves / drums (8)
- Nathan Jon Tillett / artwork, vocals (3)
Код:
-----------------------
DON'T MODIFY THIS FILE
-----------------------
PERFORMER: auCDtect Task Manager, ver. 1.5.1RC4 build 1.5.1.5
Copyright (c) 2008-2010 y-soft. All rights reserved
[url=http://y-soft.org]http://y-soft.org[/url]
ANALYZER: auCDtect: CD records authenticity detector, version 0.8.2
Copyright (c) 2004 Oleg Berngardt. All rights reserved.
Copyright (c) 2004 Alexander Djourik. All rights reserved.
FILE: Gordon Midgley - The Fall of the House of Usher - 10 The Fall.flac
  Size: 86267301 Hash: 096DE28CF04F970A8B98D5A1F1E890A7 Accuracy: -m8
  Conclusion: CDDA 100%
  Signature: 5DD9A106F97729EB0657428FC614ECB900F421BE
FILE: Gordon Midgley - The Fall of the House of Usher - 09 Escapist Tales.flac
  Size: 29725951 Hash: B57DFC6C89C1EF1E1CEEDAD5AE39C4D4 Accuracy: -m8
  Conclusion: CDDA 100%
  Signature: E8E1EEAB70E0B1F71E38DDBAB079FD6D3FEF08C4
FILE: Gordon Midgley - The Fall of the House of Usher - 08 Storm.flac
  Size: 34270593 Hash: 6E1C3B56D9B9C485C2B35F22644FCA82 Accuracy: -m8
  Conclusion: CDDA 100%
  Signature: 4E09FE754548C528F05FC35BD4F3593EF890E153
FILE: Gordon Midgley - The Fall of the House of Usher - 07 Announcement.flac
  Size: 51150391 Hash: 32FCB1F64A72E03585DDB8A3925BBB7C Accuracy: -m8
  Conclusion: CDDA 100%
  Signature: 0290E8C1B0EB41AFE0DECE1FEB78B6E480CFAC89
FILE: Gordon Midgley - The Fall of the House of Usher - 06 Haunted Palace.flac
  Size: 16917740 Hash: DA94EF128463B4B918EDC9BB1C6E596C Accuracy: -m8
  Conclusion: CDDA 100%
  Signature: 21320B41632DCE8DDCD109E2341A65D7522D2CF4
FILE: Gordon Midgley - The Fall of the House of Usher - 05 Witness.flac
  Size: 58488463 Hash: 7A4F00E8E8A8959D4033AD6F82D93BB7 Accuracy: -m8
  Conclusion: CDDA 100%
  Signature: FFE95E1DB1E5C32B66479B34A39921A59E854C70
FILE: Gordon Midgley - The Fall of the House of Usher - 04 Roderick Usher.flac
  Size: 43068985 Hash: 6BF1AF3C3CE20D375A7104D74A5CA9BE Accuracy: -m8
  Conclusion: CDDA 99%
  Signature: B29DD67FA2569E6DD840BFD845C5F0CDFA589754
FILE: Gordon Midgley - The Fall of the House of Usher - 03 Doctor's Warning.flac
  Size: 30399896 Hash: 7C2144EC5D4A1F622B2005FE664C6AFB Accuracy: -m8
  Conclusion: CDDA 100%
  Signature: EABD156F1B5148FCC5094D64C4FE06DB3D8F2180
FILE: Gordon Midgley - The Fall of the House of Usher - 02 Last Rays.flac
  Size: 42950499 Hash: 7B6301201BD413D4FECA7EEF12B67864 Accuracy: -m8
  Conclusion: CDDA 100%
  Signature: 9B71D4AB060F61387AE4DAE951E2B3E7568B5AA4
FILE: Gordon Midgley - The Fall of the House of Usher - 01 Painful Memories.flac
  Size: 43594733 Hash: 182B9A2E167B12A11E202BCB1AA85039 Accuracy: -m8
  Conclusion: CDDA 100%
  Signature: 428BEF8E8ED9CCAB0E28696E88A9B503A2E6CC80
Код:
foobar2000 1.3.16 / Замер динамического диапазона (DR) 1.1.1
Дата отчёта:  2019-07-08 13:44:36
--------------------------------------------------------------------------------
Анализ:   Gordon Midgley / The Fall of the House of Usher
--------------------------------------------------------------------------------
DR         Пики         RMS           Продолжительность трека
--------------------------------------------------------------------------------
DR9        0.00 дБ   -12.69 дБ      8:10 01-Painful Memories
DR10       0.00 дБ   -12.84 дБ      4:40 03-Doctor's Warning
DR9        0.00 дБ   -11.49 дБ      6:42 04-Roderick Usher
DR10       0.00 дБ   -12.22 дБ      9:12 05-Witness
DR12      -0.48 дБ   -16.19 дБ      2:52 06-Haunted Palace
DR8        0.00 дБ   -11.09 дБ      7:38 07-Announcement
DR8        0.00 дБ   -10.06 дБ      4:34 08-Storm
DR9        0.00 дБ   -13.33 дБ      4:32 09- Escapist Tales
DR8        0.00 дБ   -11.36 дБ     14:08 10-The Fall
--------------------------------------------------------------------------------
Количество треков: 9
Реальные значения DR: DR9
Частота:   44100 Гц
Каналов:   2
Разрядность:   16
Битрейт:   814 кбит/с
Кодек:   FLAC
================================================================================
Код:
Общее
Полное имя                               : G:\MUSIC\Archive\GORDON MIDGLEY\Gordon Midgley - The Fall of the House of Usher\Gordon Midgley - The
Fall of the House of Usher - CommentaryVideo.mp4
Формат                                   : MPEG-4
Профиль формата                          : Base Media / Version 2
Идентификатор кодека                     : mp42 (mp41/isom)
Размер файла                             : 82,1 Мбайт
Продолжительность                        : 12 м. 25 с.
Общий поток                              : 923 Кбит/сек
Дата кодирования                         : UTC 2017-09-15 11:50:24
Дата пометки                             : UTC 2017-09-15 11:50:24
Видео
Идентификатор                            : 1
Формат                                   : AVC
Формат/Информация                        : Advanced Video Codec
Профиль формата                          : Baseline@L3.1
Настройки формата                        : 2 Ref Frames
Параметр CABAC формата                   : Нет
Параметр RefFrames формата               : 2 кадра
Параметр GOP формата                     : M=1, N=60
Идентификатор кодека                     : avc1
Идентификатор кодека/Информация          : Advanced Video Coding
Продолжительность                        : 12 м. 25 с.
Продолжительность оригинала              : 12 м. 25 с.
Битрейт                                  : 725 Кбит/сек
Ширина                                   : 854 пикселя
Высота                                   : 480 пикселей
Соотношение сторон                       : 16:9
Режим частоты кадров                     : Постоянный
Частота кадров                           : 29,970 (29970/1000) кадров/сек
Цветовое пространство                    : YUV
Субдискретизация насыщенности            : 4:2:0
Битовая глубина                          : 8 бит
Тип развёртки                            : Прогрессивная
Бит/(Пиксели*Кадры)                      : 0.059
Размер потока                            : 64,5 Мбайт (79%)
Размер потока оригинала                  : 64,5 Мбайт (79%)
Дата кодирования                         : UTC 2017-09-15 11:50:24
Дата пометки                             : UTC 2017-09-15 11:50:24
mdhd_Duration                            : 745812
Аудио
Идентификатор                            : 2
Формат                                   : AAC
Правила, инструкции, FAQ!!!
Торрент  Добавлен [10 июл 2019, 09:02] Скачать торрент Магнет ссылка
Скачать торрент
[ Размер 21.4 КБ / Просмотров 5 ]

Статус
Проверен 
 
Размер  807.44 МБ
Приватный: Нет (DHT включён)
.torrent скачан  0
Как залить торрент? | Как скачать Torrent? | Ошибка в торренте? Качайте магнет  


     Отправить личное сообщение
   
Страница 1 из 1
Показать сообщения за:  Поле сортировки  
Начать новую тему Ответить на тему


Сейчас этот форум просматривают: нет зарегистрированных пользователей и гости: 0


Вы не можете начинать темы
Вы не можете отвечать на сообщения
Вы не можете редактировать свои сообщения
Вы не можете удалять свои сообщения
Вы не можете добавлять вложения

Перейти:  
Ресурс не предоставляет электронные версии произведений, а занимается лишь коллекционированием и каталогизацией ссылок, присылаемых и публикуемых на форуме нашими читателями. Если вы являетесь правообладателем какого-либо представленного материала и не желаете чтобы ссылка на него находилась в нашем каталоге, свяжитесь с нами и мы незамедлительно удалим её. Файлы для обмена на трекере предоставлены пользователями сайта, и администрация не несёт ответственности за их содержание. Просьба не заливать файлы, защищенные авторскими правами, а также файлы нелегального содержания!
cron