Начать новую тему Ответить на тему
Статистика раздачи
Размер: 7.51 ГБ | Добавлен: 12 июн 2019, 18:14 | Скачали: 0
Сидеров: 0  [0 байт/сек]    Личеров: 0  [0 байт/сек]
Пред. тема | След. тема 

Автор
Сообщение

СообщениеДобавлено: 12 июн 2019, 18:14 

Ответить с цитатой 

Название: Часовой механизм
Оригинальное название: Ticker
Год выхода: 2001
Страна: США
Студия: Artisan Entertainment, Emmett/Furla/Oasis Films (EFO Films)
Продолжительность: 01:32:01
Жанр: боевик, триллер, криминал
Режиссер: Альберт Пьюн
В ролях: Том Сайзмор, Дэннис Хоппер, Стивен Сигал, Джейми Прессли, Нас, Розонда «Чилли» Томас, Питер Грин, Кевин Гейдж, Майкл Халсли, Норберт Вайссер, ...

Перевод:
- Профессиональный (дублированный) Пирамида
- Профессиональный (многоголосый, закадровый) РТР
- Профессиональный (многоголосый, закадровый) Lizard Cinema Trade
- Авторский (одноголосый, закадровый) Визгунов Сергей
- Авторский (одноголосый, закадровый) Гаевский Евгений
- Субтитры

О фильме: Когда Сан-Франциско сотрясает серия мощнейших взрывов, детектив Рэй Нэттлс выходит на след безжалостного террориста Алекса Свана, намеревающегося разрушить важнейшие здания в городе, погубив десятки тысяч жизней. Не раскрывая причин своих поступков, Сван устраивает для полицейских хитроумные смертоносные ловушки, постоянно ускользая от преследования.
Не в силах в одиночку поймать разбушевавшегося маньяка, Нэттлс обращается за помощью к опытному саперу Глассу, вместе с которым они настигают убийцу, только тогда понимая, что он — всего лишь марионетка в руках более опасного и поистине безумного злодея…



Кодек: x264
Качество: BDRip 1080p
Видео: 1920x1080, 8695 kbps, 23,976 fps
Аудио #1: AC-3, 6 ch, 448 kbps (Rus) - Dub Пирамида
Аудио #2: AC-3, 2 ch, 192 kbps (Rus) - MVO РТР
Аудио #3: AC-3, 2 ch, 192 kbps (Rus) - MVO Lizard Cinema Trade
Аудио #4: AC-3, 2 ch, 192 kbps (Rus) - AVO Визгунов Сергей
Аудио #5: AC-3, 6 ch, 448 kbps (Rus) - AVO Гаевский Евгений
Аудио #6: DTS, 6 ch, 1509 kbps (Eng)
Субтитры: Русские, Английские

Общее
Уникальный идентификатор : 235408123199931088180990384813623915143 (0xB119F4929F3D9A578DFC1EC9734EB287)
Полное имя : Часовой механизм (Ticker) 2001 BDRip 1080p.mkv
Формат : Matroska
Версия формата : Version 2
Размер файла : 7,51 Гбайт
Продолжительность : 1 ч. 32 м.
Общий поток : 11,7 Мбит/сек
Дата кодирования : UTC 2017-03-22 07:15:27
Программа кодирования : mkvmerge v4.0.0 ('The Stars were mine') сборка от Jun 6 2010 16:18:42
Библиотека кодирования : libebml v1.0.0 + libmatroska v1.0.0

Видео
Идентификатор : 1
Формат : AVC
Формат/Информация : Advanced Video Codec
Профиль формата : High@L4.1
Параметр CABAC формата : Да
Параметр ReFrames формата : 4 кадра
Идентификатор кодека : V_MPEG4/ISO/AVC
Продолжительность : 1 ч. 32 м.
Битрейт : 8695 Кбит/сек
Ширина : 1920 пикселей
Высота : 1080 пикселей
Соотношение сторон : 16:9
Режим частоты кадров : Постоянный
Частота кадров : 23,976 кадра/сек
Цветовое пространство : YUV
Субдискретизация насыщенности : 4:2:0
Битовая глубина : 8 бит
Тип развёртки : Прогрессивная
Бит/(Пиксели*Кадры) : 0.175
Размер потока : 5,44 Гбайт (72%)
Библиотека кодирования : x264 core 120 r2146 bcd41db
Настройки программы : cabac=1 / ref=4 / deblock=1:0:0 / analyse=0x3:0x133 / me=umh / subme=7 / psy=1 / psy_rd=1.00:0.00 / mixed_ref=0 / me_range=16 / chroma_me=1 / trellis=1 / 8x8dct=1 / cqm=0 / deadzone=21,11 / fast_pskip=0 / chroma_qp_offset=-2 / threads=12 / sliced_threads=0 / nr=0 / decimate=1 / interlaced=0 / bluray_compat=0 / constrained_intra=0 / bframes=5 / b_pyramid=2 / b_adapt=1 / b_bias=0 / direct=1 / weightb=1 / open_gop=0 / weightp=2 / keyint=250 / keyint_min=23 / scenecut=40 / intra_refresh=0 / rc_lookahead=40 / rc=2pass / mbtree=1 / bitrate=8695 / ratetol=1.0 / qcomp=0.60 / qpmin=10 / qpmax=51 / qpstep=4 / cplxblur=20.0 / qblur=0.5 / ip_ratio=1.40 / aq=1:1.00
Язык : English
Default : Нет
Forced : Нет

Аудио #1
Идентификатор : 2
Формат : AC-3
Формат/Информация : Audio Coding 3
Расширение режима : CM (complete main)
Параметр Endianness формата : Big
Идентификатор кодека : A_AC3
Продолжительность : 1 ч. 32 м.
Вид битрейта : Постоянный
Битрейт : 448 Кбит/сек
Каналы : 6 каналов
Расположение каналов : Front: L C R, Side: L R, LFE
Частота : 48,0 КГц
Битовая глубина : 16 бит
Метод сжатия : С потерями
Размер потока : 295 Мбайт (4%)
Заголовок : Dub Пирамида
Язык : Russian
Default : Нет
Forced : Нет

Аудио #2
Идентификатор : 3
Формат : AC-3
Формат/Информация : Audio Coding 3
Расширение режима : CM (complete main)
Параметр Endianness формата : Big
Идентификатор кодека : A_AC3
Продолжительность : 1 ч. 32 м.
Вид битрейта : Постоянный
Битрейт : 192 Кбит/сек
Каналы : 2 канала
Расположение каналов : Front: L R
Частота : 48,0 КГц
Битовая глубина : 16 бит
Метод сжатия : С потерями
Размер потока : 126 Мбайт (2%)
Заголовок : MVO РТР
Язык : Russian
Default : Нет
Forced : Нет

Аудио #3
Идентификатор : 4
Формат : AC-3
Формат/Информация : Audio Coding 3
Расширение режима : CM (complete main)
Параметр Endianness формата : Big
Идентификатор кодека : A_AC3
Продолжительность : 1 ч. 32 м.
Вид битрейта : Постоянный
Битрейт : 192 Кбит/сек
Каналы : 2 канала
Расположение каналов : Front: L R
Частота : 48,0 КГц
Битовая глубина : 16 бит
Метод сжатия : С потерями
Размер потока : 126 Мбайт (2%)
Заголовок : MVO Lizard Cinema Trade
Язык : Russian
Default : Нет
Forced : Нет

Аудио #4
Идентификатор : 5
Формат : AC-3
Формат/Информация : Audio Coding 3
Расширение режима : CM (complete main)
Параметр Endianness формата : Big
Идентификатор кодека : A_AC3
Продолжительность : 1 ч. 32 м.
Вид битрейта : Постоянный
Битрейт : 192 Кбит/сек
Каналы : 2 канала
Расположение каналов : Front: L R
Частота : 48,0 КГц
Битовая глубина : 16 бит
Метод сжатия : С потерями
Размер потока : 126 Мбайт (2%)
Заголовок : AVO Визгунов Сергей
Язык : Russian
Default : Нет
Forced : Нет

Аудио #5
Идентификатор : 6
Формат : AC-3
Формат/Информация : Audio Coding 3
Расширение режима : CM (complete main)
Параметр Endianness формата : Big
Идентификатор кодека : A_AC3
Продолжительность : 1 ч. 32 м.
Вид битрейта : Постоянный
Битрейт : 448 Кбит/сек
Каналы : 6 каналов
Расположение каналов : Front: L C R, Side: L R, LFE
Частота : 48,0 КГц
Битовая глубина : 16 бит
Метод сжатия : С потерями
Размер потока : 295 Мбайт (4%)
Заголовок : AVO Гаевский Евгений
Язык : Russian
Default : Нет
Forced : Нет

Аудио #6
Идентификатор : 7
Формат : DTS
Формат/Информация : Digital Theater Systems
Режим : 16
Параметр Endianness формата : Big
Идентификатор кодека : A_DTS
Продолжительность : 1 ч. 32 м.
Вид битрейта : Постоянный
Битрейт : 1509 Кбит/сек
Каналы : 6 каналов
Расположение каналов : Front: L C R, Side: L R, LFE
Частота : 48,0 КГц
Битовая глубина : 24 бит
Метод сжатия : С потерями
Задержка видео : 11 мс.
Размер потока : 993 Мбайт (13%)
Язык : English
Default : Нет
Forced : Нет

Текст #1
Идентификатор : 8
Формат : UTF-8
Идентификатор кодека : S_TEXT/UTF8
Идентификатор кодека/Информация : UTF-8 Plain Text
Язык : Russian
Default : Нет
Forced : Нет

Текст #2
Идентификатор : 9
Формат : UTF-8
Идентификатор кодека : S_TEXT/UTF8
Идентификатор кодека/Информация : UTF-8 Plain Text
Язык : English
Default : Нет
Forced : Нет


Правила, инструкции, FAQ!!!
Торрент  Добавлен [12 июн 2019, 18:14] Скачать торрент Магнет ссылка
Скачать торрент
[ Размер 38.45 КБ / Просмотров 7 ]

Статус
Проверен 
 
Размер  7.51 ГБ
Приватный: Нет (DHT включён)
.torrent скачан  0
Как залить торрент? | Как скачать Torrent? | Ошибка в торренте? Качайте магнет  


     Отправить личное сообщение
   
Страница 1 из 1
Показать сообщения за:  Поле сортировки  
Начать новую тему Ответить на тему


Сейчас этот форум просматривают: нет зарегистрированных пользователей и гости: 0


Вы не можете начинать темы
Вы не можете отвечать на сообщения
Вы не можете редактировать свои сообщения
Вы не можете удалять свои сообщения
Вы не можете добавлять вложения

Перейти:  
Ресурс не предоставляет электронные версии произведений, а занимается лишь коллекционированием и каталогизацией ссылок, присылаемых и публикуемых на форуме нашими читателями. Если вы являетесь правообладателем какого-либо представленного материала и не желаете чтобы ссылка на него находилась в нашем каталоге, свяжитесь с нами и мы незамедлительно удалим её. Файлы для обмена на трекере предоставлены пользователями сайта, и администрация не несёт ответственности за их содержание. Просьба не заливать файлы, защищенные авторскими правами, а также файлы нелегального содержания!