Начать новую тему Ответить на тему
Статистика раздачи
Размер: 2.53 ГБ | Добавлен: 05 сен 2015, 23:18 | Скачали: 2
Сидеров: 145  [0 байт/сек]    Личеров: 19  [0 байт/сек]
Пред. тема | След. тема 

Автор
Сообщение

СообщениеДобавлено: 05 сен 2015, 23:18 

Ответить с цитатой 

Charlie Parker - Now's The Time (2005) 10CD Set

Жанр: Bop, Jazz
Носитель: CD
Год выхода альбома \ диска: 2005
Издатель (лейбл) \ номер по каталогу: Documents \ 222921
Страна исполнителя \ производитель диска: USA \ Germany
Аудиокодек: FLAC
Тип рипа: Image+CUE
Битрейт аудио: Lossless
Продолжительность: 10:00:31
Источник (релизер): net
Наличие сканов в содержимом раздачи: нет, только коврик и о-оочень маленький бак коробки

Треклист :
Продолжительность: 01:02:20
Треклист:
CD 01
01. Swingmatism [00:02:39]
02. The jumpin' blues [00:03:04]
03. Tiny's tempo [00:02:52]
04. I'll always love you [00:02:58]
05. Romance without finance [00:03:01]
06. Red Cross [00:03:06]
07. Dream of you [00:02:50]
08. Groovin' high [00:02:37]
09. Dizzy atmosphere [00:02:45]
10. All the things you are [00:02:44]
11. Salt peanuts [00:03:13]
12. Shaw 'nuff [00:02:57]
13. Hot House [00:03:06]
14. Hallelujah [00:03:57]
15. Get happy [00:03:39]
16. Slam Slam blues [00:04:25]
17. Congo blues [00:03:50]
18. Takin' off [00:03:06]
19. 20th century blues [00:02:53]
20. The street beat [00:02:28]
Код:
Код:
Exact Audio Copy V1.0 beta 3 from 29. August 2011

EAC extraction logfile from 3. December 2014, 13:13

Charlie Parker / CD1 - Groovin' High

Used drive  : TSSTcorpCDDVDW SN-208BB   Adapter: 0  ID: 0

Read mode               : Secure
Utilize accurate stream : Yes
Defeat audio cache      : No
Make use of C2 pointers : No

Read offset correction                      : 6
Overread into Lead-In and Lead-Out          : No
Fill up missing offset samples with silence : Yes
Delete leading and trailing silent blocks   : No
Null samples used in CRC calculations       : Yes
Used interface                              : Native Win32 interface for Win NT & 2000

Used output format              : User Defined Encoder
Selected bitrate                : 768 kBit/s
Quality                         : High
Add ID3 tag                     : No
Command line compressor         : C:\Program Files (x86)\Exact Audio Copy\FLAC\FLAC.EXE
Additional command line options : -6 -V -T "ARTIST=%artist%" -T "TITLE=%title%" -T "ALBUM=%albumtitle%" -T "DATE=%year%" -T "TRACKNUMBER=%tracknr%" -T "GENRE=%genre%" -T "COMMENT=%comment%" -T "BAND=%albuminterpret%" -T "ALBUMARTIST=%albuminterpret%" -T "COMPOSER=%composer%" %haslyrics%--tag-from-file=LYRICS="%lyricsfile%"%haslyrics% -T "DISCNUMBER=%cdnumber%" -T "TOTALDISCS=%totalcds%" -T "TOTALTRACKS=%numtracks%" %hascover%--picture="%coverfile%"%hascover% %source% -o %dest%

TOC of the extracted CD

     Track |   Start  |  Length  | Start sector | End sector
    ---------------------------------------------------------
        1  |  0:00.00 |  2:41.71 |         0    |    12145
        2  |  2:41.71 |  3:06.10 |     12146    |    26105
        3  |  5:48.06 |  2:54.43 |     26106    |    39198
        4  |  8:42.49 |  3:00.46 |     39199    |    52744
        5  | 11:43.20 |  3:03.19 |     52745    |    66488
        6  | 14:46.39 |  3:08.20 |     66489    |    80608
        7  | 17:54.59 |  2:52.22 |     80609    |    93530
        8  | 20:47.06 |  2:39.72 |     93531    |   105527
        9  | 23:27.03 |  2:47.24 |    105528    |   118076
       10  | 26:14.27 |  2:46.53 |    118077    |   130579
       11  | 29:01.05 |  3:15.50 |    130580    |   145254
       12  | 32:16.55 |  2:59.74 |    145255    |   158753
       13  | 35:16.54 |  3:08.33 |    158754    |   172886
       14  | 38:25.12 |  3:59.45 |    172887    |   190856
       15  | 42:24.57 |  3:41.45 |    190857    |   207476
       16  | 46:06.27 |  4:27.57 |    207477    |   227558
       17  | 50:34.09 |  3:52.30 |    227559    |   244988
       18  | 54:26.39 |  3:08.28 |    244989    |   259116
       19  | 57:34.67 |  2:55.16 |    259117    |   272257
       20  | 60:30.08 |  2:30.06 |    272258    |   283513

Range status and errors

Selected range

     Filename D:\EAC\Charlie Parker - CD1 - Groovin' High.wav

     Peak level 100.0 %
     Extraction speed 4.5 X
     Range quality 100.0 %
     Copy CRC B098B55E
     Copy OK

No errors occurred

AccurateRip summary

Track  1  accurately ripped (confidence 7)  [3F18963B]  (AR v2)
Track  2  accurately ripped (confidence 7)  [0B7E2834]  (AR v2)
Track  3  accurately ripped (confidence 7)  [B3356141]  (AR v2)
Track  4  accurately ripped (confidence 7)  [407C8A2B]  (AR v2)
Track  5  accurately ripped (confidence 7)  [9F1781C0]  (AR v2)
Track  6  accurately ripped (confidence 7)  [B81CCCD4]  (AR v2)
Track  7  accurately ripped (confidence 6)  [B4A00F3F]  (AR v2)
Track  8  accurately ripped (confidence 7)  [221EA221]  (AR v2)
Track  9  accurately ripped (confidence 7)  [6579DA26]  (AR v2)
Track 10  accurately ripped (confidence 7)  [26CFF510]  (AR v2)
Track 11  accurately ripped (confidence 7)  [4C04720C]  (AR v2)
Track 12  accurately ripped (confidence 7)  [BEA99240]  (AR v2)
Track 13  accurately ripped (confidence 7)  [84C40797]  (AR v2)
Track 14  accurately ripped (confidence 7)  [E8043BB7]  (AR v2)
Track 15  accurately ripped (confidence 7)  [A6E696A8]  (AR v2)
Track 16  accurately ripped (confidence 7)  [C57EDF00]  (AR v2)
Track 17  accurately ripped (confidence 7)  [13B6FDA4]  (AR v2)
Track 18  accurately ripped (confidence 7)  [61EB2EDC]  (AR v2)
Track 19  accurately ripped (confidence 7)  [FF14B1AB]  (AR v2)
Track 20  accurately ripped (confidence 7)  [709207BD]  (AR v2)

All tracks accurately ripped

End of status report
Код:
Код:
REM GENRE Jazz
REM DISCID 260EC414
REM COMMENT "ExactAudioCopy v1.0b3"
PERFORMER "Charlie Parker"
TITLE "CD1 - Groovin' High"
FILE "Charlie Parker - CD1 - Groovin' High.flac" WAVE
  TRACK 01 AUDIO
    TITLE "Swingmatism"
    PERFORMER "Charlie Parker"
    INDEX 01 00:00:00
  TRACK 02 AUDIO
    TITLE "The jumpin' blues"
    PERFORMER "Charlie Parker"
    INDEX 00 02:39:71
    INDEX 01 02:41:71
  TRACK 03 AUDIO
    TITLE "Tiny's tempo"
    PERFORMER "Charlie Parker"
    INDEX 00 05:46:06
    INDEX 01 05:48:06
  TRACK 04 AUDIO
    TITLE "I'll always love you"
    PERFORMER "Charlie Parker"
    INDEX 00 08:40:49
    INDEX 01 08:42:49
  TRACK 05 AUDIO
    TITLE "Romance without finance"
    PERFORMER "Charlie Parker"
    INDEX 00 11:41:20
    INDEX 01 11:43:20
  TRACK 06 AUDIO
    TITLE "Red Cross"
    PERFORMER "Charlie Parker"
    INDEX 00 14:44:39
    INDEX 01 14:46:39
  TRACK 07 AUDIO
    TITLE "Dream of you"
    PERFORMER "Charlie Parker"
    INDEX 00 17:52:59
    INDEX 01 17:54:59
  TRACK 08 AUDIO
    TITLE "Groovin' high"
    PERFORMER "Charlie Parker"
    INDEX 00 20:45:06
    INDEX 01 20:47:06
  TRACK 09 AUDIO
    TITLE "Dizzy atmosphere"
    PERFORMER "Charlie Parker"
    INDEX 00 23:25:03
    INDEX 01 23:27:03
  TRACK 10 AUDIO
    TITLE "All the things you are"
    PERFORMER "Charlie Parker"
    INDEX 00 26:12:27
    INDEX 01 26:14:27
  TRACK 11 AUDIO
    TITLE "Salt peanuts"
    PERFORMER "Charlie Parker"
    INDEX 00 28:59:05
    INDEX 01 29:01:05
  TRACK 12 AUDIO
    TITLE "Shaw 'nuff"
    PERFORMER "Charlie Parker"
    INDEX 00 32:14:55
    INDEX 01 32:16:55
  TRACK 13 AUDIO
    TITLE "Hot House"
    PERFORMER "Charlie Parker"
    INDEX 00 35:14:54
    INDEX 01 35:16:54
  TRACK 14 AUDIO
    TITLE "Hallelujah"
    PERFORMER "Charlie Parker"
    INDEX 00 38:23:12
    INDEX 01 38:25:12
  TRACK 15 AUDIO
    TITLE "Get happy"
    PERFORMER "Charlie Parker"
    INDEX 00 42:22:57
    INDEX 01 42:24:57
  TRACK 16 AUDIO
    TITLE "Slam Slam blues"
    PERFORMER "Charlie Parker"
    INDEX 00 46:04:27
    INDEX 01 46:06:27
  TRACK 17 AUDIO
    TITLE "Congo blues"
    PERFORMER "Charlie Parker"
    INDEX 00 50:32:09
    INDEX 01 50:34:09
  TRACK 18 AUDIO
    TITLE "Takin' off"
    PERFORMER "Charlie Parker"
    INDEX 00 54:24:39
    INDEX 01 54:26:39
  TRACK 19 AUDIO
    TITLE "20th century blues"
    PERFORMER "Charlie Parker"
    INDEX 00 57:32:67
    INDEX 01 57:34:67
  TRACK 20 AUDIO
    TITLE "The street beat"
    PERFORMER "Charlie Parker"
    INDEX 00 60:28:08
    INDEX 01 60:30:08
Код:
Код:
foobar2000 1.3.1 / Замер динамического диапазона (DR) 1.1.1
Дата отчёта: 2014-12-15 18:08:25

--------------------------------------------------------------------------------
Анализ:   Charlie Parker / CD1 - Groovin' High
--------------------------------------------------------------------------------

DR         Пики          RMS        Продолжительность трека
--------------------------------------------------------------------------------
DR14       0.00 дБ   -16.26 дБ      2:42 01-Swingmatism
DR14       0.00 дБ   -16.09 дБ      3:06 02-The jumpin' blues
DR15       0.00 дБ   -20.27 дБ      2:55 03-Tiny's tempo
DR15       0.00 дБ   -18.01 дБ      3:01 04-I'll always love you
DR14       0.00 дБ   -17.40 дБ      3:03 05-Romance without finance
DR15       0.00 дБ   -17.57 дБ      3:08 06-Red Cross
DR14       0.00 дБ   -17.70 дБ      2:52 07-Dream of you
DR11       0.00 дБ   -15.20 дБ      2:40 08-Groovin' high
DR14       0.00 дБ   -17.29 дБ      2:47 09-Dizzy atmosphere
DR14       0.00 дБ   -17.39 дБ      2:47 10-All the things you are
DR15       0.00 дБ   -18.00 дБ      3:16 11-Salt peanuts
DR14       0.00 дБ   -17.82 дБ      3:00 12-Shaw 'nuff
DR14       0.00 дБ   -17.13 дБ      3:08 13-Hot House
DR14       0.00 дБ   -18.31 дБ      4:00 14-Hallelujah
DR14       0.00 дБ   -17.41 дБ      3:42 15-Get happy
DR15       0.00 дБ   -20.86 дБ      4:28 16-Slam Slam blues
DR14       0.00 дБ   -18.14 дБ      3:52 17-Congo blues
DR12       0.00 дБ   -14.47 дБ      3:08 18-Takin' off
DR12       0.00 дБ   -16.19 дБ      2:55 19-20th century blues
DR12       0.00 дБ   -16.34 дБ      2:30 20-The street beat
--------------------------------------------------------------------------------

Количество треков:  20
Реальные значения DR:  DR14

Частота:  44100 гц
Каналов:  2
Бит на сэмпл:    16
Битрейт:  532 кбит/с
Кодек:   FLAC
================================================================================

-----------------------

DON'T MODIFY THIS FILE

-----------------------

PERFORMER: auCDtect Task Manager, ver. 1.5.1RC4 build 1.5.1.5
Copyright (c) 2008-2010 y-soft. All rights reserved
http://y-soft.org

ANALYZER: auCDtect: CD records authenticity detector, version 0.8.2
Copyright (c) 2004 Oleg Berngardt. All rights reserved.
Copyright (c) 2004 Alexander Djourik. All rights reserved.

FILE: Charlie Parker - CD1 - Groovin' High.flac
Size: 251535866 Hash: 7911C5E1D813B2891192BEE914D9C09D Accuracy: -m0
Conclusion: CDDA 100%
Signature: FF7CBB32989D812AC980A478CAEFD44F45445277
Продолжительность: 00:59:22
Треклист:
01. Warming up a riff [00:02:32]
02. Billie's bounce [00:03:08]
03. Now's the time [00:03:14]
04. Thriving on a riff [00:02:52]
05. Meandering [00:03:14]
06. Ko-Ko [00:02:53]
07. Dizzy's boogie [00:03:07]
08. Flat floot floogie [00:02:30]
09. Poppity pop [00:02:55]
10. Slim's jam [00:03:12]
11. Diggin' Diz [00:02:50]
12. Moose the Mooche [00:03:01]
13. Yardbird suite [00:02:53]
14. Ornithology [00:02:58]
15. Night in Tunisia [00:03:01]
16. Max (Is) making wax [00:02:30]
17. Lover man [00:03:18]
18. The gypsy [00:03:01]
19. Be-bop [00:02:52]
20. This is always [00:03:10]
Код:
Код:
Exact Audio Copy V1.0 beta 3 from 29. August 2011

EAC extraction logfile from 3. December 2014, 13:34

Charlie Parker / CD2 - Now's The Time

Used drive  : TSSTcorpCDDVDW SN-208BB   Adapter: 0  ID: 0

Read mode               : Secure
Utilize accurate stream : Yes
Defeat audio cache      : No
Make use of C2 pointers : No

Read offset correction                      : 6
Overread into Lead-In and Lead-Out          : No
Fill up missing offset samples with silence : Yes
Delete leading and trailing silent blocks   : No
Null samples used in CRC calculations       : Yes
Used interface                              : Native Win32 interface for Win NT & 2000

Used output format              : User Defined Encoder
Selected bitrate                : 768 kBit/s
Quality                         : High
Add ID3 tag                     : No
Command line compressor         : C:\Program Files (x86)\Exact Audio Copy\FLAC\FLAC.EXE
Additional command line options : -6 -V -T "ARTIST=%artist%" -T "TITLE=%title%" -T "ALBUM=%albumtitle%" -T "DATE=%year%" -T "TRACKNUMBER=%tracknr%" -T "GENRE=%genre%" -T "COMMENT=%comment%" -T "BAND=%albuminterpret%" -T "ALBUMARTIST=%albuminterpret%" -T "COMPOSER=%composer%" %haslyrics%--tag-from-file=LYRICS="%lyricsfile%"%haslyrics% -T "DISCNUMBER=%cdnumber%" -T "TOTALDISCS=%totalcds%" -T "TOTALTRACKS=%numtracks%" %hascover%--picture="%coverfile%"%hascover% %source% -o %dest%

TOC of the extracted CD

     Track |   Start  |  Length  | Start sector | End sector
    ---------------------------------------------------------
        1  |  0:00.00 |  2:34.22 |         0    |    11571
        2  |  2:34.22 |  3:10.23 |     11572    |    25844
        3  |  5:44.45 |  3:16.24 |     25845    |    40568
        4  |  9:00.69 |  2:54.70 |     40569    |    53688
        5  | 11:55.64 |  3:16.56 |     53689    |    68444
        6  | 15:12.45 |  2:55.18 |     68445    |    81587
        7  | 18:07.63 |  3:09.59 |     81588    |    95821
        8  | 21:17.47 |  2:32.44 |     95822    |   107265
        9  | 23:50.16 |  2:57.34 |    107266    |   120574
       10  | 26:47.50 |  3:14.43 |    120575    |   135167
       11  | 30:02.18 |  2:52.32 |    135168    |   148099
       12  | 32:54.50 |  3:03.73 |    148100    |   161897
       13  | 35:58.48 |  2:55.67 |    161898    |   175089
       14  | 38:54.40 |  3:00.57 |    175090    |   188646
       15  | 41:55.22 |  3:03.60 |    188647    |   202431
       16  | 44:59.07 |  2:32.01 |    202432    |   213832
       17  | 47:31.08 |  3:20.55 |    213833    |   228887
       18  | 50:51.63 |  3:03.50 |    228888    |   242662
       19  | 53:55.38 |  2:54.58 |    242663    |   255770
       20  | 56:50.21 |  3:12.32 |    255771    |   270202

Range status and errors

Selected range

     Filename D:\EAC\Charlie Parker - CD2 - Now's The Time.wav

     Peak level 100.0 %
     Extraction speed 4.3 X
     Range quality 100.0 %
     Copy CRC B7B6EBB2
     Copy OK

No errors occurred

AccurateRip summary

Track  1  not present in database
Track  2  not present in database
Track  3  not present in database
Track  4  not present in database
Track  5  not present in database
Track  6  not present in database
Track  7  not present in database
Track  8  not present in database
Track  9  not present in database
Track 10  not present in database
Track 11  not present in database
Track 12  not present in database
Track 13  not present in database
Track 14  not present in database
Track 15  not present in database
Track 16  not present in database
Track 17  not present in database
Track 18  not present in database
Track 19  not present in database
Track 20  not present in database

None of the tracks are present in the AccurateRip database

End of status report
Код:
Код:
REM GENRE Jazz
REM DISCID 0D0E1214
REM COMMENT "ExactAudioCopy v1.0b3"
PERFORMER "Charlie Parker"
TITLE "CD2 - Now's The Time"
FILE "Charlie Parker - CD2 - Now's The Time.flac" WAVE
  TRACK 01 AUDIO
    TITLE "Warming up a riff"
    PERFORMER "Charlie Parker"
    INDEX 01 00:00:00
  TRACK 02 AUDIO
    TITLE "Billie's bounce"
    PERFORMER "Charlie Parker"
    INDEX 00 02:32:22
    INDEX 01 02:34:22
  TRACK 03 AUDIO
    TITLE "Now's the time"
    PERFORMER "Charlie Parker"
    INDEX 00 05:42:45
    INDEX 01 05:44:45
  TRACK 04 AUDIO
    TITLE "Thriving on a riff"
    PERFORMER "Charlie Parker"
    INDEX 00 08:58:69
    INDEX 01 09:00:69
  TRACK 05 AUDIO
    TITLE "Meandering"
    PERFORMER "Charlie Parker"
    INDEX 00 11:53:64
    INDEX 01 11:55:64
  TRACK 06 AUDIO
    TITLE "Ko-Ko"
    PERFORMER "Charlie Parker"
    INDEX 00 15:10:45
    INDEX 01 15:12:45
  TRACK 07 AUDIO
    TITLE "Dizzy's boogie"
    PERFORMER "Charlie Parker"
    INDEX 00 18:05:63
    INDEX 01 18:07:63
  TRACK 08 AUDIO
    TITLE "Flat floot floogie"
    PERFORMER "Charlie Parker"
    INDEX 00 21:15:47
    INDEX 01 21:17:47
  TRACK 09 AUDIO
    TITLE "Poppity pop"
    PERFORMER "Charlie Parker"
    INDEX 00 23:48:17
    INDEX 01 23:50:16
  TRACK 10 AUDIO
    TITLE "Slim's jam"
    PERFORMER "Charlie Parker"
    INDEX 00 26:45:50
    INDEX 01 26:47:50
  TRACK 11 AUDIO
    TITLE "Diggin' Diz"
    PERFORMER "Charlie Parker"
    INDEX 00 30:00:18
    INDEX 01 30:02:18
  TRACK 12 AUDIO
    TITLE "Moose the Mooche"
    PERFORMER "Charlie Parker"
    INDEX 00 32:52:50
    INDEX 01 32:54:50
  TRACK 13 AUDIO
    TITLE "Yardbird suite"
    PERFORMER "Charlie Parker"
    INDEX 00 35:56:48
    INDEX 01 35:58:48
  TRACK 14 AUDIO
    TITLE "Ornithology"
    PERFORMER "Charlie Parker"
    INDEX 00 38:52:40
    INDEX 01 38:54:40
  TRACK 15 AUDIO
    TITLE "Night in Tunisia"
    PERFORMER "Charlie Parker"
    INDEX 00 41:53:22
    INDEX 01 41:55:22
  TRACK 16 AUDIO
    TITLE "Max (Is) making wax"
    PERFORMER "Charlie Parker"
    INDEX 00 44:57:07
    INDEX 01 44:59:07
  TRACK 17 AUDIO
    TITLE "Lover man"
    PERFORMER "Charlie Parker"
    INDEX 00 47:29:08
    INDEX 01 47:31:08
  TRACK 18 AUDIO
    TITLE "The gypsy"
    PERFORMER "Charlie Parker"
    INDEX 00 50:49:63
    INDEX 01 50:51:63
  TRACK 19 AUDIO
    TITLE "Be-bop"
    PERFORMER "Charlie Parker"
    INDEX 00 53:53:38
    INDEX 01 53:55:38
  TRACK 20 AUDIO
    TITLE "This is always"
    PERFORMER "Charlie Parker"
    INDEX 00 56:48:21
    INDEX 01 56:50:21
Код:
Код:
foobar2000 1.3.1 / Замер динамического диапазона (DR) 1.1.1
Дата отчёта: 2014-12-15 18:08:34

--------------------------------------------------------------------------------
Анализ:   Charlie Parker / CD2 - Now's The Time
--------------------------------------------------------------------------------

DR         Пики          RMS        Продолжительность трека
--------------------------------------------------------------------------------
DR12       0.00 дБ   -14.78 дБ      2:34 01-Warming up a riff
DR13       0.00 дБ   -16.59 дБ      3:10 02-Billie's bounce
DR13       0.00 дБ   -16.33 дБ      3:16 03-Now's the time
DR15       0.00 дБ   -20.01 дБ      2:55 04-Thriving on a riff
DR14       0.00 дБ   -18.35 дБ      3:17 05-Meandering
DR13       0.00 дБ   -15.78 дБ      2:55 06-Ko-Ko
DR13       0.00 дБ   -17.39 дБ      3:10 07-Dizzy's boogie
DR14       0.00 дБ   -17.29 дБ      2:33 08-Flat floot floogie
DR15       0.00 дБ   -18.04 дБ      2:57 09-Poppity pop
DR14       0.00 дБ   -18.53 дБ      3:15 10-Slim's jam
DR15       0.00 дБ   -18.72 дБ      2:52 11-Diggin' Diz
DR13       0.00 дБ   -16.24 дБ      3:04 12-Moose the Mooche
DR15       0.00 дБ   -18.43 дБ      2:56 13-Yardbird suite
DR14       0.00 дБ   -16.81 дБ      3:01 14-Ornithology
DR12       0.00 дБ   -15.49 дБ      3:04 15-Night in Tunisia
DR12       0.00 дБ   -16.25 дБ      2:32 16-Max (Is) making wax
DR13       0.00 дБ   -18.08 дБ      3:21 17-Lover man
DR15       0.00 дБ   -19.46 дБ      3:04 18-The gypsy
DR12       0.00 дБ   -14.58 дБ      2:55 19-Be-bop
DR12       0.00 дБ   -15.39 дБ      3:12 20-This is always
--------------------------------------------------------------------------------

Количество треков:  20
Реальные значения DR:  DR14

Частота:  44100 гц
Каналов:  2
Бит на сэмпл:    16
Битрейт:  563 кбит/с
Кодек:   FLAC
================================================================================

-----------------------

DON'T MODIFY THIS FILE

-----------------------

PERFORMER: auCDtect Task Manager, ver. 1.5.1RC4 build 1.5.1.5
Copyright (c) 2008-2010 y-soft. All rights reserved
http://y-soft.org

ANALYZER: auCDtect: CD records authenticity detector, version 0.8.2
Copyright (c) 2004 Oleg Berngardt. All rights reserved.
Copyright (c) 2004 Alexander Djourik. All rights reserved.

FILE: Charlie Parker - CD2 - Now's The Time.flac
Size: 253549000 Hash: 1D805A16E00E74081D67CE760B3F920C Accuracy: -m0
Conclusion: CDDA 100%
Signature: B6164180C6197ACDC170117E10FCC67065B2A652
Продолжительность: 00:56:02
Треклист:
01. Dark shadows [00:03:04]
02. Bird's nest [00:02:41]
03. Cool blues [00:03:06]
04. Relaxin' at Camarillo [00:03:04]
05. Cheers [00:03:03]
06. Carvin' the bird [00:02:43]
07. Stupendous [00:02:52]
08. Donna Lee [00:02:30]
09. Chasin' the Bird [00:02:42]
10. Cheryl [00:02:55]
11. Buzzy [00:02:26]
12. Milestones [00:02:33]
13. Little Willie leaps [00:02:48]
14. Half Nelson [00:02:40]
15. Slippin' at bells [00:02:19]
16. Dexterity [00:02:58]
17. Bongo bop [00:02:44]
18. Dewey Square [00:03:07]
19. The hymn [00:02:31]
20. Bird of Paradise [00:03:07]
Код:
Код:
Exact Audio Copy V1.0 beta 3 from 29. August 2011

EAC extraction logfile from 3. December 2014, 13:53

Charlie Parker / CD3 - Now's The Time

Used drive  : TSSTcorpCDDVDW SN-208BB   Adapter: 0  ID: 0

Read mode               : Secure
Utilize accurate stream : Yes
Defeat audio cache      : No
Make use of C2 pointers : No

Read offset correction                      : 6
Overread into Lead-In and Lead-Out          : No
Fill up missing offset samples with silence : Yes
Delete leading and trailing silent blocks   : No
Null samples used in CRC calculations       : Yes
Used interface                              : Native Win32 interface for Win NT & 2000

Used output format              : User Defined Encoder
Selected bitrate                : 768 kBit/s
Quality                         : High
Add ID3 tag                     : No
Command line compressor         : C:\Program Files (x86)\Exact Audio Copy\FLAC\FLAC.EXE
Additional command line options : -6 -V -T "ARTIST=%artist%" -T "TITLE=%title%" -T "ALBUM=%albumtitle%" -T "DATE=%year%" -T "TRACKNUMBER=%tracknr%" -T "GENRE=%genre%" -T "COMMENT=%comment%" -T "BAND=%albuminterpret%" -T "ALBUMARTIST=%albuminterpret%" -T "COMPOSER=%composer%" %haslyrics%--tag-from-file=LYRICS="%lyricsfile%"%haslyrics% -T "DISCNUMBER=%cdnumber%" -T "TOTALDISCS=%totalcds%" -T "TOTALTRACKS=%numtracks%" %hascover%--picture="%coverfile%"%hascover% %source% -o %dest%

TOC of the extracted CD

     Track |   Start  |  Length  | Start sector | End sector
    ---------------------------------------------------------
        1  |  0:00.00 |  3:06.23 |         0    |    13972
        2  |  3:06.23 |  2:43.37 |     13973    |    26234
        3  |  5:49.60 |  3:08.70 |     26235    |    40404
        4  |  8:58.55 |  3:06.72 |     40405    |    54426
        5  | 12:05.52 |  3:05.51 |     54427    |    68352
        6  | 15:11.28 |  2:45.56 |     68353    |    80783
        7  | 17:57.09 |  2:54.58 |     80784    |    93891
        8  | 20:51.67 |  2:32.32 |     93892    |   105323
        9  | 23:24.24 |  2:44.16 |    105324    |   117639
       10  | 26:08.40 |  2:57.34 |    117640    |   130948
       11  | 29:05.74 |  2:28.18 |    130949    |   142066
       12  | 31:34.17 |  2:35.36 |    142067    |   153727
       13  | 34:09.53 |  2:50.06 |    153728    |   166483
       14  | 36:59.59 |  2:42.65 |    166484    |   178698
       15  | 39:42.49 |  2:21.67 |    178699    |   189340
       16  | 42:04.41 |  3:00.00 |    189341    |   202840
       17  | 45:04.41 |  2:46.18 |    202841    |   215308
       18  | 47:50.59 |  3:09.22 |    215309    |   229505
       19  | 51:00.06 |  2:33.06 |    229506    |   240986
       20  | 53:33.12 |  3:09.30 |    240987    |   255191

Range status and errors

Selected range

     Filename D:\EAC\Charlie Parker - CD3 - Now's The Time.wav

     Peak level 100.0 %
     Extraction speed 3.9 X
     Range quality 100.0 %
     Copy CRC B6C12108
     Copy OK

No errors occurred

AccurateRip summary

Track  1  accurately ripped (confidence 7)  [50D854D6]  (AR v2)
Track  2  accurately ripped (confidence 7)  [83B029EC]  (AR v2)
Track  3  accurately ripped (confidence 7)  [7E94430C]  (AR v2)
Track  4  accurately ripped (confidence 7)  [B12487AE]  (AR v2)
Track  5  accurately ripped (confidence 7)  [A943226A]  (AR v2)
Track  6  accurately ripped (confidence 7)  [81F4CCFD]  (AR v2)
Track  7  accurately ripped (confidence 7)  [490ADD1A]  (AR v2)
Track  8  accurately ripped (confidence 7)  [2D53625A]  (AR v2)
Track  9  accurately ripped (confidence 7)  [61BED8EB]  (AR v2)
Track 10  accurately ripped (confidence 7)  [7061551D]  (AR v2)
Track 11  accurately ripped (confidence 7)  [2B3D93FA]  (AR v2)
Track 12  accurately ripped (confidence 7)  [F89BD612]  (AR v2)
Track 13  accurately ripped (confidence 7)  [9BF7E717]  (AR v2)
Track 14  accurately ripped (confidence 7)  [F676E371]  (AR v2)
Track 15  accurately ripped (confidence 7)  [78B33902]  (AR v2)
Track 16  accurately ripped (confidence 7)  [BAE356C5]  (AR v2)
Track 17  accurately ripped (confidence 7)  [1F04CCB2]  (AR v2)
Track 18  accurately ripped (confidence 7)  [ED62DDDC]  (AR v2)
Track 19  accurately ripped (confidence 7)  [0E3B6EED]  (AR v2)
Track 20  accurately ripped (confidence 7)  [B8B4ADF5]  (AR v2)

All tracks accurately ripped

End of status report
Код:
Код:
REM GENRE Jazz
REM DISCID 090D4A14
REM COMMENT "ExactAudioCopy v1.0b3"
PERFORMER "Charlie Parker"
TITLE "CD3 - Now's The Time"
FILE "Charlie Parker - CD3 - Now's The Time.flac" WAVE
  TRACK 01 AUDIO
    TITLE "Dark shadows"
    PERFORMER "Charlie Parker"
    INDEX 01 00:00:00
  TRACK 02 AUDIO
    TITLE "Bird's nest"
    PERFORMER "Charlie Parker"
    INDEX 00 03:04:23
    INDEX 01 03:06:23
  TRACK 03 AUDIO
    TITLE "Cool blues"
    PERFORMER "Charlie Parker"
    INDEX 00 05:47:60
    INDEX 01 05:49:60
  TRACK 04 AUDIO
    TITLE "Relaxin' at Camarillo"
    PERFORMER "Charlie Parker"
    INDEX 00 08:56:55
    INDEX 01 08:58:55
  TRACK 05 AUDIO
    TITLE "Cheers"
    PERFORMER "Charlie Parker"
    INDEX 00 12:03:52
    INDEX 01 12:05:52
  TRACK 06 AUDIO
    TITLE "Carvin' the bird"
    PERFORMER "Charlie Parker"
    INDEX 00 15:09:28
    INDEX 01 15:11:28
  TRACK 07 AUDIO
    TITLE "Stupendous"
    PERFORMER "Charlie Parker"
    INDEX 00 17:55:09
    INDEX 01 17:57:09
  TRACK 08 AUDIO
    TITLE "Donna Lee"
    PERFORMER "Charlie Parker"
    INDEX 00 20:49:67
    INDEX 01 20:51:67
  TRACK 09 AUDIO
    TITLE "Chasin' the Bird"
    PERFORMER "Charlie Parker"
    INDEX 00 23:22:24
    INDEX 01 23:24:24
  TRACK 10 AUDIO
    TITLE "Cheryl"
    PERFORMER "Charlie Parker"
    INDEX 00 26:06:40
    INDEX 01 26:08:40
  TRACK 11 AUDIO
    TITLE "Buzzy"
    PERFORMER "Charlie Parker"
    INDEX 00 29:03:74
    INDEX 01 29:05:74
  TRACK 12 AUDIO
    TITLE "Milestones"
    PERFORMER "Charlie Parker"
    INDEX 00 31:32:17
    INDEX 01 31:34:17
  TRACK 13 AUDIO
    TITLE "Little Willie leaps"
    PERFORMER "Charlie Parker"
    INDEX 00 34:07:53
    INDEX 01 34:09:53
  TRACK 14 AUDIO
    TITLE "Half Nelson"
    PERFORMER "Charlie Parker"
    INDEX 00 36:57:59
    INDEX 01 36:59:59
  TRACK 15 AUDIO
    TITLE "Slippin' at bells"
    PERFORMER "Charlie Parker"
    INDEX 00 39:40:49
    INDEX 01 39:42:49
  TRACK 16 AUDIO
    TITLE "Dexterity"
    PERFORMER "Charlie Parker"
    INDEX 00 42:02:41
    INDEX 01 42:04:41
  TRACK 17 AUDIO
    TITLE "Bongo bop"
    PERFORMER "Charlie Parker"
    INDEX 00 45:02:41
    INDEX 01 45:04:41
  TRACK 18 AUDIO
    TITLE "Dewey Square"
    PERFORMER "Charlie Parker"
    INDEX 00 47:48:59
    INDEX 01 47:50:59
  TRACK 19 AUDIO
    TITLE "The hymn"
    PERFORMER "Charlie Parker"
    INDEX 00 50:58:06
    INDEX 01 51:00:06
  TRACK 20 AUDIO
    TITLE "Bird of Paradise"
    PERFORMER "Charlie Parker"
    INDEX 00 53:31:12
    INDEX 01 53:33:12
Код:
Код:
foobar2000 1.3.1 / Замер динамического диапазона (DR) 1.1.1
Дата отчёта: 2014-12-15 18:08:42

--------------------------------------------------------------------------------
Анализ:   Charlie Parker / CD3 - Now's The Time
--------------------------------------------------------------------------------

DR         Пики          RMS        Продолжительность трека
--------------------------------------------------------------------------------
DR15       0.00 дБ   -19.44 дБ      3:06 01-Dark shadows
DR13       0.00 дБ   -19.57 дБ      2:43 02-Bird's nest
DR15       0.00 дБ   -18.51 дБ      3:09 03-Cool blues
DR13       0.00 дБ   -17.86 дБ      3:07 04-Relaxin' at Camarillo
DR14       0.00 дБ   -17.07 дБ      3:06 05-Cheers
DR14       0.00 дБ   -17.91 дБ      2:46 06-Carvin' the bird
DR12       0.00 дБ   -15.92 дБ      2:55 07-Stupendous
DR14       0.00 дБ   -16.70 дБ      2:32 08-Donna Lee
DR13       0.00 дБ   -17.36 дБ      2:44 09-Chasin' the Bird
DR13       0.00 дБ   -15.78 дБ      2:57 10-Cheryl
DR14       0.00 дБ   -17.37 дБ      2:28 11-Buzzy
DR13       0.00 дБ   -14.94 дБ      2:35 12-Milestones
DR15       0.00 дБ   -18.41 дБ      2:50 13-Little Willie leaps
DR13      -2.00 дБ   -17.91 дБ      2:43 14-Half Nelson
DR13      -1.00 дБ   -17.01 дБ      2:22 15-Slippin' at bells
DR12      -1.00 дБ   -15.54 дБ      3:00 16-Dexterity
DR16       0.00 дБ   -19.55 дБ      2:46 17-Bongo bop
DR16       0.00 дБ   -19.54 дБ      3:09 18-Dewey Square
DR14       0.00 дБ   -18.55 дБ      2:33 19-The hymn
DR14       0.00 дБ   -17.90 дБ      3:09 20-Bird of Paradise
--------------------------------------------------------------------------------

Количество треков:  20
Реальные значения DR:  DR14

Частота:  44100 гц
Каналов:  2
Бит на сэмпл:    16
Битрейт:  590 кбит/с
Кодек:   FLAC
================================================================================

-----------------------

DON'T MODIFY THIS FILE

-----------------------

PERFORMER: auCDtect Task Manager, ver. 1.5.1RC4 build 1.5.1.5
Copyright (c) 2008-2010 y-soft. All rights reserved
http://y-soft.org

ANALYZER: auCDtect: CD records authenticity detector, version 0.8.2
Copyright (c) 2004 Oleg Berngardt. All rights reserved.
Copyright (c) 2004 Alexander Djourik. All rights reserved.

FILE: Charlie Parker - CD3 - Now's The Time.flac
Size: 251212766 Hash: D625A0C0C3DD87D801361DE98D8A4AEC Accuracy: -m0
Conclusion: CDDA 100%
Signature: 11CE76D58BFE5DD271760467C4C80A541DEC8BEF
Продолжительность: 00:57:25
Треклист:
01. Embraceable You [00:03:22]
02. Bird Feathers [00:02:50]
03. Klact-Oveeseds-Tene [00:03:04]
04. Scrapple From The Apple [00:02:57]
05. My Old Flame [00:03:13]
06. Out Of Nowhere [00:03:04]
07. Don't Blame Me [00:02:46]
08. Drifting On A Reed [00:02:55]
09. Quasimodo [00:02:52]
10. Charlie's Wig [00:02:41]
11. Bongo Beep [00:02:56]
12. Crazeology [00:02:56]
13. How Deep Is The Ocean? [00:03:22]
14. Another Hair-Do [00:02:35]
15. Blue Bird [00:02:47]
16. Klaunstance [00:02:43]
17. Bird Gets The Worm [00:02:33]
18. Barbados [00:02:27]
19. Ah-Leu-Cha [00:02:52]
20. Constellation [00:02:23]
Код:
Код:
Exact Audio Copy V1.0 beta 3 from 29. August 2011

EAC extraction logfile from 3. December 2014, 14:15

Charlie Parker / CD 04 - Now's The Time

Used drive  : TSSTcorpCDDVDW SN-208BB   Adapter: 0  ID: 0

Read mode               : Secure
Utilize accurate stream : Yes
Defeat audio cache      : No
Make use of C2 pointers : No

Read offset correction                      : 6
Overread into Lead-In and Lead-Out          : No
Fill up missing offset samples with silence : Yes
Delete leading and trailing silent blocks   : No
Null samples used in CRC calculations       : Yes
Used interface                              : Native Win32 interface for Win NT & 2000

Used output format              : User Defined Encoder
Selected bitrate                : 768 kBit/s
Quality                         : High
Add ID3 tag                     : No
Command line compressor         : C:\Program Files (x86)\Exact Audio Copy\FLAC\FLAC.EXE
Additional command line options : -6 -V -T "ARTIST=%artist%" -T "TITLE=%title%" -T "ALBUM=%albumtitle%" -T "DATE=%year%" -T "TRACKNUMBER=%tracknr%" -T "GENRE=%genre%" -T "COMMENT=%comment%" -T "BAND=%albuminterpret%" -T "ALBUMARTIST=%albuminterpret%" -T "COMPOSER=%composer%" %haslyrics%--tag-from-file=LYRICS="%lyricsfile%"%haslyrics% -T "DISCNUMBER=%cdnumber%" -T "TOTALDISCS=%totalcds%" -T "TOTALTRACKS=%numtracks%" %hascover%--picture="%coverfile%"%hascover% %source% -o %dest%

TOC of the extracted CD

     Track |   Start  |  Length  | Start sector | End sector
    ---------------------------------------------------------
        1  |  0:00.00 |  3:24.04 |         0    |    15303
        2  |  3:24.04 |  2:52.46 |     15304    |    28249
        3  |  6:16.50 |  3:06.39 |     28250    |    42238
        4  |  9:23.14 |  2:59.00 |     42239    |    55663
        5  | 12:22.14 |  3:15.07 |     55664    |    70295
        6  | 15:37.21 |  3:06.69 |     70296    |    84314
        7  | 18:44.15 |  2:48.16 |     84315    |    96930
        8  | 21:32.31 |  2:57.10 |     96931    |   110215
        9  | 24:29.41 |  2:54.05 |    110216    |   123270
       10  | 27:23.46 |  2:43.30 |    123271    |   135525
       11  | 30:07.01 |  2:58.56 |    135526    |   148931
       12  | 33:05.57 |  2:58.65 |    148932    |   162346
       13  | 36:04.47 |  3:24.38 |    162347    |   177684
       14  | 39:29.10 |  2:37.42 |    177685    |   189501
       15  | 42:06.52 |  2:49.54 |    189502    |   202230
       16  | 44:56.31 |  2:45.05 |    202231    |   214610
       17  | 47:41.36 |  2:35.11 |    214611    |   226246
       18  | 50:16.47 |  2:29.24 |    226247    |   237445
       19  | 52:45.71 |  2:54.44 |    237446    |   250539
       20  | 55:40.40 |  2:25.20 |    250540    |   261434

Range status and errors

Selected range

     Filename D:\EAC\Charlie Parker - CD 04 - Now's The Time.wav

     Peak level 100.0 %
     Extraction speed 3.6 X
     Range quality 100.0 %
     Copy CRC 78933FA0
     Copy OK

No errors occurred

AccurateRip summary

Track  1  accurately ripped (confidence 7)  [43EA45DF]  (AR v2)
Track  2  accurately ripped (confidence 7)  [A22CEB9F]  (AR v2)
Track  3  accurately ripped (confidence 7)  [3A469734]  (AR v2)
Track  4  accurately ripped (confidence 7)  [056DD72C]  (AR v2)
Track  5  accurately ripped (confidence 7)  [6611EB27]  (AR v2)
Track  6  accurately ripped (confidence 7)  [EC414938]  (AR v2)
Track  7  accurately ripped (confidence 7)  [F3F4A9E5]  (AR v2)
Track  8  accurately ripped (confidence 7)  [DE3EDC4D]  (AR v2)
Track  9  accurately ripped (confidence 7)  [A0FFC8AC]  (AR v2)
Track 10  accurately ripped (confidence 7)  [5CCF94D4]  (AR v2)
Track 11  accurately ripped (confidence 7)  [A7E9D1A1]  (AR v2)
Track 12  accurately ripped (confidence 6)  [C508D3CA]  (AR v2)
Track 13  accurately ripped (confidence 6)  [894C9E2A]  (AR v2)
Track 14  accurately ripped (confidence 6)  [08A918F1]  (AR v2)
Track 15  accurately ripped (confidence 6)  [01EAAF8C]  (AR v2)
Track 16  accurately ripped (confidence 7)  [ABCDA880]  (AR v2)
Track 17  accurately ripped (confidence 7)  [C57E6129]  (AR v2)
Track 18  accurately ripped (confidence 7)  [38E82F0E]  (AR v2)
Track 19  accurately ripped (confidence 7)  [4559B8EC]  (AR v2)
Track 20  accurately ripped (confidence 6)  [62149CD3]  (AR v2)

All tracks accurately ripped

End of status report
Код:
Код:
REM GENRE Jazz
REM DISCID 350D9D14
REM COMMENT "ExactAudioCopy v1.0b3"
PERFORMER "Charlie Parker"
TITLE "CD 04 - Now's The Time"
FILE "Charlie Parker - CD 04 - Now's The Time.flac" WAVE
  TRACK 01 AUDIO
    TITLE "Embraceable You"
    PERFORMER "Charlie Parker"
    INDEX 01 00:00:00
  TRACK 02 AUDIO
    TITLE "Bird Feathers"
    PERFORMER "Charlie Parker"
    INDEX 00 03:22:04
    INDEX 01 03:24:04
  TRACK 03 AUDIO
    TITLE "Klact-Oveeseds-Tene"
    PERFORMER "Charlie Parker"
    INDEX 00 06:14:50
    INDEX 01 06:16:50
  TRACK 04 AUDIO
    TITLE "Scrapple From The Apple"
    PERFORMER "Charlie Parker"
    INDEX 00 09:21:14
    INDEX 01 09:23:14
  TRACK 05 AUDIO
    TITLE "My Old Flame"
    PERFORMER "Charlie Parker"
    INDEX 00 12:20:14
    INDEX 01 12:22:14
  TRACK 06 AUDIO
    TITLE "Out Of Nowhere"
    PERFORMER "Charlie Parker"
    INDEX 00 15:35:21
    INDEX 01 15:37:21
  TRACK 07 AUDIO
    TITLE "Don't Blame Me"
    PERFORMER "Charlie Parker"
    INDEX 00 18:42:15
    INDEX 01 18:44:15
  TRACK 08 AUDIO
    TITLE "Drifting On A Reed"
    PERFORMER "Charlie Parker"
    INDEX 00 21:30:31
    INDEX 01 21:32:31
  TRACK 09 AUDIO
    TITLE "Quasimodo"
    PERFORMER "Charlie Parker"
    INDEX 00 24:27:41
    INDEX 01 24:29:41
  TRACK 10 AUDIO
    TITLE "Charlie's Wig"
    PERFORMER "Charlie Parker"
    INDEX 00 27:21:46
    INDEX 01 27:23:46
  TRACK 11 AUDIO
    TITLE "Bongo Beep"
    PERFORMER "Charlie Parker"
    INDEX 00 30:05:01
    INDEX 01 30:07:01
  TRACK 12 AUDIO
    TITLE "Crazeology"
    PERFORMER "Charlie Parker"
    INDEX 00 33:03:57
    INDEX 01 33:05:57
  TRACK 13 AUDIO
    TITLE "How Deep Is The Ocean?"
    PERFORMER "Charlie Parker"
    INDEX 00 36:02:47
    INDEX 01 36:04:47
  TRACK 14 AUDIO
    TITLE "Another Hair-Do"
    PERFORMER "Charlie Parker"
    INDEX 00 39:27:10
    INDEX 01 39:29:10
  TRACK 15 AUDIO
    TITLE "Blue Bird"
    PERFORMER "Charlie Parker"
    INDEX 00 42:04:52
    INDEX 01 42:06:52
  TRACK 16 AUDIO
    TITLE "Klaunstance"
    PERFORMER "Charlie Parker"
    INDEX 00 44:54:31
    INDEX 01 44:56:31
  TRACK 17 AUDIO
    TITLE "Bird Gets The Worm"
    PERFORMER "Charlie Parker"
    INDEX 00 47:39:36
    INDEX 01 47:41:36
  TRACK 18 AUDIO
    TITLE "Barbados"
    PERFORMER "Charlie Parker"
    INDEX 00 50:14:47
    INDEX 01 50:16:47
  TRACK 19 AUDIO
    TITLE "Ah-Leu-Cha"
    PERFORMER "Charlie Parker"
    INDEX 00 52:43:71
    INDEX 01 52:45:71
  TRACK 20 AUDIO
    TITLE "Constellation"
    PERFORMER "Charlie Parker"
    INDEX 00 55:38:40
    INDEX 01 55:40:40
Код:
Код:
foobar2000 1.3.1 / Замер динамического диапазона (DR) 1.1.1
Дата отчёта: 2014-12-15 18:08:49

--------------------------------------------------------------------------------
Анализ:   Charlie Parker / CD 04 - Now's The Time
--------------------------------------------------------------------------------

DR         Пики          RMS        Продолжительность трека
--------------------------------------------------------------------------------
DR13       0.00 дБ   -17.18 дБ      3:24 01-Embraceable You
DR13      -1.00 дБ   -16.32 дБ      2:53 02-Bird Feathers
DR14       0.00 дБ   -17.62 дБ      3:07 03-Klact-Oveeseds-Tene
DR14       0.00 дБ   -16.89 дБ      2:59 04-Scrapple From The Apple
DR13       0.00 дБ   -17.19 дБ      3:15 05-My Old Flame
DR16       0.00 дБ   -19.83 дБ      3:07 06-Out Of Nowhere
DR15       0.00 дБ   -19.45 дБ      2:48 07-Don't Blame Me
DR12       0.00 дБ   -15.65 дБ      2:57 08-Drifting On A Reed
DR15       0.00 дБ   -18.05 дБ      2:54 09-Quasimodo
DR14       0.00 дБ   -18.13 дБ      2:43 10-Charlie's Wig
DR14       0.00 дБ   -16.40 дБ      2:59 11-Bongo Beep
DR13       0.00 дБ   -16.12 дБ      2:59 12-Crazeology
DR13       0.00 дБ   -18.57 дБ      3:25 13-How Deep Is The Ocean?
DR13       0.00 дБ   -16.40 дБ      2:38 14-Another Hair-Do
DR12       0.00 дБ   -13.87 дБ      2:50 15-Blue Bird
DR11       0.00 дБ   -14.26 дБ      2:45 16-Klaunstance
DR13       0.00 дБ   -16.15 дБ      2:35 17-Bird Gets The Worm
DR11       0.00 дБ   -13.16 дБ      2:29 18-Barbados
DR12       0.00 дБ   -14.77 дБ      2:55 19-Ah-Leu-Cha
DR15       0.00 дБ   -18.15 дБ      2:25 20-Constellation
--------------------------------------------------------------------------------

Количество треков:  20
Реальные значения DR:  DR13

Частота:  44100 гц
Каналов:  2
Бит на сэмпл:    16
Битрейт:  586 кбит/с
Кодек:   FLAC
================================================================================

-----------------------

DON'T MODIFY THIS FILE

-----------------------

PERFORMER: auCDtect Task Manager, ver. 1.5.1RC4 build 1.5.1.5
Copyright (c) 2008-2010 y-soft. All rights reserved
http://y-soft.org

ANALYZER: auCDtect: CD records authenticity detector, version 0.8.2
Copyright (c) 2004 Oleg Berngardt. All rights reserved.
Copyright (c) 2004 Alexander Djourik. All rights reserved.

FILE: Charlie Parker - CD 04 - Now's The Time.flac
Size: 255343452 Hash: F87F087041C235C26A54E7D0EA0BA9E9 Accuracy: -m0
Conclusion: CDDA 100%
Signature: 3F235AD2DD433E6A2C31EA0603F453705473E4E5
Продолжительность: 01:01:27
Треклист:
01. Parker's mood [00:03:01]
02. Perhaps [00:02:32]
03. Marmaduke [00:02:40]
04. Steeplechase [00:03:02]
05. Merry-go-round [00:02:24]
06. Segment [00:03:18]
07. Cardboard [00:03:08]
08. Passport [00:02:57]
09. Star eyes [00:03:27]
10. Ballade [00:02:54]
11. Bloomdido [00:03:26]
12. My melancholy baby [00:03:23]
13. Relaxin' with Lee [00:02:46]
14. Leap frog [00:02:29]
15. An Oscar for Treadwell [00:03:22]
16. Mohawk [00:03:34]
17. My melancholy baby (2) [00:03:16]
18. Relaxin' with Lee (2) [00:03:55]
19. Overtime [00:03:06]
20. Victory ball [00:02:37]
Код:
Код:
Exact Audio Copy V1.0 beta 3 from 29. August 2011

EAC extraction logfile from 3. December 2014, 14:40

Parker, Charlie / CD 5 - Now's The Time

Used drive  : TSSTcorpCDDVDW SN-208BB   Adapter: 0  ID: 0

Read mode               : Secure
Utilize accurate stream : Yes
Defeat audio cache      : No
Make use of C2 pointers : No

Read offset correction                      : 6
Overread into Lead-In and Lead-Out          : No
Fill up missing offset samples with silence : Yes
Delete leading and trailing silent blocks   : No
Null samples used in CRC calculations       : Yes
Used interface                              : Native Win32 interface for Win NT & 2000

Used output format              : User Defined Encoder
Selected bitrate                : 768 kBit/s
Quality                         : High
Add ID3 tag                     : No
Command line compressor         : C:\Program Files (x86)\Exact Audio Copy\FLAC\FLAC.EXE
Additional command line options : -6 -V -T "ARTIST=%artist%" -T "TITLE=%title%" -T "ALBUM=%albumtitle%" -T "DATE=%year%" -T "TRACKNUMBER=%tracknr%" -T "GENRE=%genre%" -T "COMMENT=%comment%" -T "BAND=%albuminterpret%" -T "ALBUMARTIST=%albuminterpret%" -T "COMPOSER=%composer%" %haslyrics%--tag-from-file=LYRICS="%lyricsfile%"%haslyrics% -T "DISCNUMBER=%cdnumber%" -T "TOTALDISCS=%totalcds%" -T "TOTALTRACKS=%numtracks%" %hascover%--picture="%coverfile%"%hascover% %source% -o %dest%

TOC of the extracted CD

     Track |   Start  |  Length  | Start sector | End sector
    ---------------------------------------------------------
        1  |  0:00.00 |  3:03.14 |         0    |    13738
        2  |  3:03.14 |  2:34.63 |     13739    |    25351
        3  |  5:38.02 |  2:42.69 |     25352    |    37570
        4  |  8:20.71 |  3:04.33 |     37571    |    51403
        5  | 11:25.29 |  2:26.46 |     51404    |    62399
        6  | 13:52.00 |  3:20.59 |     62400    |    77458
        7  | 17:12.59 |  3:10.11 |     77459    |    91719
        8  | 20:22.70 |  2:59.01 |     91720    |   105145
        9  | 23:21.71 |  3:29.12 |    105146    |   120832
       10  | 26:51.08 |  2:56.01 |    120833    |   134033
       11  | 29:47.09 |  3:26.59 |    134034    |   149542
       12  | 33:13.68 |  3:25.59 |    149543    |   164976
       13  | 36:39.52 |  2:48.24 |    164977    |   177600
       14  | 39:28.01 |  2:31.18 |    177601    |   188943
       15  | 41:59.19 |  3:24.57 |    188944    |   204300
       16  | 45:24.01 |  3:36.55 |    204301    |   220555
       17  | 49:00.56 |  3:18.69 |    220556    |   235474
       18  | 52:19.50 |  3:57.66 |    235475    |   253315
       19  | 56:17.41 |  3:08.42 |    253316    |   267457
       20  | 59:26.08 |  2:39.43 |    267458    |   279425

Range status and errors

Selected range

     Filename D:\EAC\Parker, Charlie - CD 5 - Now's The Time.wav

     Peak level 100.0 %
     Extraction speed 3.4 X
     Range quality 99.9 %
     Copy CRC B788B590
     Copy OK

No errors occurred

AccurateRip summary

Track  1  accurately ripped (confidence 7)  [16718E80]  (AR v2)
Track  2  accurately ripped (confidence 7)  [B282926C]  (AR v2)
Track  3  accurately ripped (confidence 7)  [DB693658]  (AR v2)
Track  4  accurately ripped (confidence 7)  [666EF758]  (AR v2)
Track  5  accurately ripped (confidence 7)  [34CF5D24]  (AR v2)
Track  6  accurately ripped (confidence 7)  [0F303113]  (AR v2)
Track  7  accurately ripped (confidence 7)  [4CCAFF4F]  (AR v2)
Track  8  accurately ripped (confidence 7)  [005EEAB3]  (AR v2)
Track  9  accurately ripped (confidence 7)  [353549F9]  (AR v2)
Track 10  accurately ripped (confidence 7)  [27CD3DCF]  (AR v2)
Track 11  accurately ripped (confidence 7)  [AAB49D56]  (AR v2)
Track 12  accurately ripped (confidence 7)  [23ADED92]  (AR v2)
Track 13  accurately ripped (confidence 7)  [FB7DD663]  (AR v2)
Track 14  accurately ripped (confidence 7)  [B2533AAB]  (AR v2)
Track 15  accurately ripped (confidence 7)  [D9FA4AB4]  (AR v2)
Track 16  accurately ripped (confidence 7)  [E8227FB3]  (AR v2)
Track 17  accurately ripped (confidence 7)  [A9643EB2]  (AR v2)
Track 18  accurately ripped (confidence 7)  [39297F6B]  (AR v2)
Track 19  accurately ripped (confidence 7)  [C47726A6]  (AR v2)
Track 20  accurately ripped (confidence 7)  [67004BA4]  (AR v2)

All tracks accurately ripped

End of status report
Код:
Код:
REM GENRE Jazz
REM DATE 2005
REM DISCID 0A0E8D14
REM COMMENT "ExactAudioCopy v1.0b3"
PERFORMER "Parker, Charlie"
TITLE "CD 5 - Now's The Time"
FILE "Parker, Charlie - CD 5 - Now's The Time.flac" WAVE
  TRACK 01 AUDIO
    TITLE "Parker's mood"
    PERFORMER "Parker, Charlie"
    INDEX 01 00:00:00
  TRACK 02 AUDIO
    TITLE "Perhaps"
    PERFORMER "Parker, Charlie"
    INDEX 00 03:01:14
    INDEX 01 03:03:14
  TRACK 03 AUDIO
    TITLE "Marmaduke"
    PERFORMER "Parker, Charlie"
    INDEX 00 05:36:02
    INDEX 01 05:38:02
  TRACK 04 AUDIO
    TITLE "Steeplechase"
    PERFORMER "Parker, Charlie"
    INDEX 00 08:18:71
    INDEX 01 08:20:71
  TRACK 05 AUDIO
    TITLE "Merry-go-round"
    PERFORMER "Parker, Charlie"
    INDEX 00 11:23:29
    INDEX 01 11:25:29
  TRACK 06 AUDIO
    TITLE "Segment"
    PERFORMER "Parker, Charlie"
    INDEX 00 13:50:00
    INDEX 01 13:52:00
  TRACK 07 AUDIO
    TITLE "Cardboard"
    PERFORMER "Parker, Charlie"
    INDEX 00 17:10:59
    INDEX 01 17:12:59
  TRACK 08 AUDIO
    TITLE "Passport"
    PERFORMER "Parker, Charlie"
    INDEX 00 20:20:70
    INDEX 01 20:22:70
  TRACK 09 AUDIO
    TITLE "Star eyes"
    PERFORMER "Parker, Charlie"
    INDEX 00 23:19:71
    INDEX 01 23:21:71
  TRACK 10 AUDIO
    TITLE "Ballade"
    PERFORMER "Parker, Charlie"
    INDEX 00 26:49:08
    INDEX 01 26:51:08
  TRACK 11 AUDIO
    TITLE "Bloomdido"
    PERFORMER "Parker, Charlie"
    INDEX 00 29:45:09
    INDEX 01 29:47:09
  TRACK 12 AUDIO
    TITLE "My melancholy baby"
    PERFORMER "Parker, Charlie"
    INDEX 01 33:13:68
  TRACK 13 AUDIO
    TITLE "Relaxin' with Lee"
    PERFORMER "Parker, Charlie"
    INDEX 00 36:37:52
    INDEX 01 36:39:52
  TRACK 14 AUDIO
    TITLE "Leap frog"
    PERFORMER "Parker, Charlie"
    INDEX 00 39:26:01
    INDEX 01 39:28:01
  TRACK 15 AUDIO
    TITLE "An Oscar for Treadwell"
    PERFORMER "Parker, Charlie"
    INDEX 00 41:57:19
    INDEX 01 41:59:19
  TRACK 16 AUDIO
    TITLE "Mohawk"
    PERFORMER "Parker, Charlie"
    INDEX 00 45:22:01
    INDEX 01 45:24:01
  TRACK 17 AUDIO
    TITLE "My melancholy baby (2)"
    PERFORMER "Parker, Charlie"
    INDEX 00 48:58:56
    INDEX 01 49:00:56
  TRACK 18 AUDIO
    TITLE "Relaxin' with Lee (2)"
    PERFORMER "Parker, Charlie"
    INDEX 00 52:17:50
    INDEX 01 52:19:50
  TRACK 19 AUDIO
    TITLE "Overtime"
    PERFORMER "Parker, Charlie"
    INDEX 00 56:15:41
    INDEX 01 56:17:41
  TRACK 20 AUDIO
    TITLE "Victory ball"
    PERFORMER "Parker, Charlie"
    INDEX 00 59:24:08
    INDEX 01 59:26:08
Код:
Код:
foobar2000 1.3.1 / Замер динамического диапазона (DR) 1.1.1
Дата отчёта: 2014-12-15 18:08:58

--------------------------------------------------------------------------------
Анализ:   Charlie Parker / CD 5 - Now's The Time
--------------------------------------------------------------------------------

DR         Пики          RMS        Продолжительность трека
--------------------------------------------------------------------------------
DR12       0.00 дБ   -16.25 дБ      3:03 01-Parker's mood
DR11       0.00 дБ   -14.10 дБ      2:35 02-Perhaps
DR11       0.00 дБ   -12.78 дБ      2:43 03-Marmaduke
DR11       0.00 дБ   -14.60 дБ      3:04 04-Steeplechase
DR12       0.00 дБ   -13.80 дБ      2:27 05-Merry-go-round
DR16       0.00 дБ   -18.88 дБ      3:21 06-Segment
DR12       0.00 дБ   -14.15 дБ      3:10 07-Cardboard
DR14       0.00 дБ   -16.79 дБ      2:59 08-Passport
DR14       0.00 дБ   -17.08 дБ      3:29 09-Star eyes
DR15       0.00 дБ   -18.17 дБ      2:56 10-Ballade
DR12       0.00 дБ   -15.66 дБ      3:27 11-Bloomdido
DR12       0.00 дБ   -15.34 дБ      3:26 12-My melancholy baby
DR13       0.00 дБ   -17.70 дБ      2:48 13-Relaxin' with Lee
DR13       0.00 дБ   -15.11 дБ      2:31 14-Leap frog
DR12       0.00 дБ   -14.66 дБ      3:25 15-An Oscar for Treadwell
DR13       0.00 дБ   -15.27 дБ      3:37 16-Mohawk
DR11       0.00 дБ   -15.65 дБ      3:19 17-My melancholy baby (2)
DR12       0.00 дБ   -16.24 дБ      3:58 18-Relaxin' with Lee (2)
DR13       0.00 дБ   -15.43 дБ      3:09 19-Overtime
DR14       0.00 дБ   -15.51 дБ      2:40 20-Victory ball
--------------------------------------------------------------------------------

Количество треков:  20
Реальные значения DR:  DR13

Частота:  44100 гц
Каналов:  2
Бит на сэмпл:    16
Битрейт:  641 кбит/с
Кодек:   FLAC
================================================================================

-----------------------

DON'T MODIFY THIS FILE

-----------------------

PERFORMER: auCDtect Task Manager, ver. 1.5.1RC4 build 1.5.1.5
Copyright (c) 2008-2010 y-soft. All rights reserved
http://y-soft.org

ANALYZER: auCDtect: CD records authenticity detector, version 0.8.2
Copyright (c) 2004 Oleg Berngardt. All rights reserved.
Copyright (c) 2004 Alexander Djourik. All rights reserved.

FILE: Parker, Charlie - CD 5 - Now's The Time.flac
Size: 298379695 Hash: 8BA62F2626DE9E462F5CFFD2984D440C Accuracy: -m0
Conclusion: CDDA 100%
Signature: DED1D9696A80D4B96A04475D91D639BAE2F15FD0
Продолжительность: 01:11:40
Треклист:
01. Oh, Lady, be good! [00:11:03]
02. A night in Tunisia [00:05:11]
03. Dizzy Atmosphere [00:04:03]
04. Groovin' high [00:05:16]
05. Confirmation [00:05:36]
06. Ko-Ko [00:04:12]
07. Embraceable you [00:10:31]
08. Ornithology [00:04:24]
09. Cheryl [00:05:01]
10. Ko-Ko (2) [00:05:02]
11. Bird of Paradise [00:06:06]
12. Now's the time [00:05:12]
Код:
Код:
Exact Audio Copy V1.0 beta 3 from 29. August 2011

EAC extraction logfile from 3. December 2014, 14:59

Charlie Parker / Now's The Time - CD6

Used drive  : TSSTcorpCDDVDW SN-208BB   Adapter: 0  ID: 0

Read mode               : Secure
Utilize accurate stream : Yes
Defeat audio cache      : No
Make use of C2 pointers : No

Read offset correction                      : 6
Overread into Lead-In and Lead-Out          : No
Fill up missing offset samples with silence : Yes
Delete leading and trailing silent blocks   : No
Null samples used in CRC calculations       : Yes
Used interface                              : Native Win32 interface for Win NT & 2000

Used output format              : User Defined Encoder
Selected bitrate                : 768 kBit/s
Quality                         : High
Add ID3 tag                     : No
Command line compressor         : C:\Program Files (x86)\Exact Audio Copy\FLAC\FLAC.EXE
Additional command line options : -6 -V -T "ARTIST=%artist%" -T "TITLE=%title%" -T "ALBUM=%albumtitle%" -T "DATE=%year%" -T "TRACKNUMBER=%tracknr%" -T "GENRE=%genre%" -T "COMMENT=%comment%" -T "BAND=%albuminterpret%" -T "ALBUMARTIST=%albuminterpret%" -T "COMPOSER=%composer%" %haslyrics%--tag-from-file=LYRICS="%lyricsfile%"%haslyrics% -T "DISCNUMBER=%cdnumber%" -T "TOTALDISCS=%totalcds%" -T "TOTALTRACKS=%numtracks%" %hascover%--picture="%coverfile%"%hascover% %source% -o %dest%

TOC of the extracted CD

     Track |   Start  |  Length  | Start sector | End sector
    ---------------------------------------------------------
        1  |  0:00.00 | 11:05.17 |         0    |    49891
        2  | 11:05.17 |  5:13.60 |     49892    |    73426
        3  | 16:19.02 |  4:05.23 |     73427    |    91824
        4  | 20:24.25 |  5:18.06 |     91825    |   115680
        5  | 25:42.31 |  5:38.02 |    115681    |   141032
        6  | 31:20.33 |  4:14.27 |    141033    |   160109
        7  | 35:34.60 | 10:33.50 |    160110    |   207634
        8  | 46:08.35 |  4:26.02 |    207635    |   227586
        9  | 50:34.37 |  5:03.07 |    227587    |   250318
       10  | 55:37.44 |  5:04.43 |    250319    |   273161
       11  | 60:42.12 |  6:08.52 |    273162    |   300813
       12  | 66:50.64 |  5:14.04 |    300814    |   324367

Range status and errors

Selected range

     Filename D:\EAC\Charlie Parker - Now's The Time - CD6.wav

     Peak level 100.0 %
     Extraction speed 4.6 X
     Range quality 100.0 %
     Copy CRC FD9A4B70
     Copy OK

No errors occurred

AccurateRip summary

Track  1  accurately ripped (confidence 7)  [082AC837]  (AR v2)
Track  2  accurately ripped (confidence 7)  [054A0932]  (AR v2)
Track  3  accurately ripped (confidence 7)  [352C97BA]  (AR v2)
Track  4  accurately ripped (confidence 7)  [D35695A1]  (AR v2)
Track  5  accurately ripped (confidence 7)  [0A1187C2]  (AR v2)
Track  6  accurately ripped (confidence 7)  [10BC3BE3]  (AR v2)
Track  7  accurately ripped (confidence 7)  [0B8EF800]  (AR v2)
Track  8  accurately ripped (confidence 7)  [708A07E4]  (AR v2)
Track  9  accurately ripped (confidence 7)  [758A0FC8]  (AR v2)
Track 10  accurately ripped (confidence 7)  [0A708638]  (AR v2)
Track 11  accurately ripped (confidence 7)  [42A6EDE8]  (AR v2)
Track 12  accurately ripped (confidence 7)  [1C3911B6]  (AR v2)

All tracks accurately ripped

End of status report
Код:
Код:
REM GENRE Jazz
REM DISCID A510E40C
REM COMMENT "ExactAudioCopy v1.0b3"
PERFORMER "Charlie Parker"
TITLE "Now's The Time - CD6"
FILE "Charlie Parker - Now's The Time - CD6.flac" WAVE
  TRACK 01 AUDIO
    TITLE "Oh, Lady, be good!"
    PERFORMER "Charlie Parker"
    INDEX 01 00:00:00
  TRACK 02 AUDIO
    TITLE "A night in Tunisia"
    PERFORMER "Charlie Parker"
    INDEX 00 11:03:17
    INDEX 01 11:05:17
  TRACK 03 AUDIO
    TITLE "Dizzy Atmosphere"
    PERFORMER "Charlie Parker"
    INDEX 00 16:17:02
    INDEX 01 16:19:02
  TRACK 04 AUDIO
    TITLE "Groovin' high"
    PERFORMER "Charlie Parker"
    INDEX 00 20:22:25
    INDEX 01 20:24:25
  TRACK 05 AUDIO
    TITLE "Confirmation"
    PERFORMER "Charlie Parker"
    INDEX 00 25:40:31
    INDEX 01 25:42:31
  TRACK 06 AUDIO
    TITLE "Ko-Ko"
    PERFORMER "Charlie Parker"
    INDEX 00 31:18:33
    INDEX 01 31:20:33
  TRACK 07 AUDIO
    TITLE "Embraceable you"
    PERFORMER "Charlie Parker"
    INDEX 00 35:32:60
    INDEX 01 35:34:60
  TRACK 08 AUDIO
    TITLE "Ornithology"
    PERFORMER "Charlie Parker"
    INDEX 00 46:06:35
    INDEX 01 46:08:35
  TRACK 09 AUDIO
    TITLE "Cheryl"
    PERFORMER "Charlie Parker"
    INDEX 00 50:32:37
    INDEX 01 50:34:37
  TRACK 10 AUDIO
    TITLE "Ko-Ko (2)"
    PERFORMER "Charlie Parker"
    INDEX 00 55:35:44
    INDEX 01 55:37:44
  TRACK 11 AUDIO
    TITLE "Bird of Paradise"
    PERFORMER "Charlie Parker"
    INDEX 00 60:40:12
    INDEX 01 60:42:12
  TRACK 12 AUDIO
    TITLE "Now's the time"
    PERFORMER "Charlie Parker"
    INDEX 00 66:48:64
    INDEX 01 66:50:64
Код:
Код:
foobar2000 1.3.1 / Замер динамического диапазона (DR) 1.1.1
Дата отчёта: 2014-12-15 18:09:07

--------------------------------------------------------------------------------
Анализ:   Charlie Parker / Now's The Time - CD6
--------------------------------------------------------------------------------

DR         Пики          RMS        Продолжительность трека
--------------------------------------------------------------------------------
DR13       0.00 дБ   -15.86 дБ     11:05 01-Oh, Lady, be good!
DR13       0.00 дБ   -16.62 дБ      5:14 02-A night in Tunisia
DR14       0.00 дБ   -17.20 дБ      4:05 03-Dizzy Atmosphere
DR13       0.00 дБ   -15.38 дБ      5:18 04-Groovin' high
DR13       0.00 дБ   -15.23 дБ      5:38 05-Confirmation
DR15       0.00 дБ   -17.78 дБ      4:14 06-Ko-Ko
DR15       0.00 дБ   -20.09 дБ     10:34 07-Embraceable you
DR14       0.00 дБ   -16.09 дБ      4:26 08-Ornithology
DR14       0.00 дБ   -17.12 дБ      5:03 09-Cheryl
DR15       0.00 дБ   -18.03 дБ      5:05 10-Ko-Ko (2)
DR14       0.00 дБ   -18.42 дБ      6:09 11-Bird of Paradise
DR13       0.00 дБ   -16.53 дБ      5:14 12-Now's the time
--------------------------------------------------------------------------------

Количество треков:  12
Реальные значения DR:  DR14

Частота:  44100 гц
Каналов:  2
Бит на сэмпл:    16
Битрейт:  585 кбит/с
Кодек:   FLAC
================================================================================

-----------------------

DON'T MODIFY THIS FILE

-----------------------

PERFORMER: auCDtect Task Manager, ver. 1.5.1RC4 build 1.5.1.5
Copyright (c) 2008-2010 y-soft. All rights reserved
http://y-soft.org

ANALYZER: auCDtect: CD records authenticity detector, version 0.8.2
Copyright (c) 2004 Oleg Berngardt. All rights reserved.
Copyright (c) 2004 Alexander Djourik. All rights reserved.

FILE: Charlie Parker - Now's The Time - CD6.flac
Size: 316419296 Hash: F9AA8DD69F7203469CB0954527EBB57E Accuracy: -m0
Conclusion: CDDA 100%
Signature: 4260A816CB01031517793C3F26C1E67ED058D48A
Продолжительность: 01:08:42
Треклист:
01. Sweet Georgia Brown (part 1 + 2) [00:09:37]
02. Lady be good (part 1 + 2) [00:11:11]
03. Ballad Medley [00:17:23]
04. What is this thing called love? [00:15:51]
05. Jam blues [00:14:39]
Код:
Код:
Exact Audio Copy V1.0 beta 3 from 29. August 2011

EAC extraction logfile from 3. December 2014, 15:20

Charlie Parker / Now's The Time - CD7

Used drive  : TSSTcorpCDDVDW SN-208BB   Adapter: 0  ID: 0

Read mode               : Secure
Utilize accurate stream : Yes
Defeat audio cache      : No
Make use of C2 pointers : No

Read offset correction                      : 6
Overread into Lead-In and Lead-Out          : No
Fill up missing offset samples with silence : Yes
Delete leading and trailing silent blocks   : No
Null samples used in CRC calculations       : Yes
Used interface                              : Native Win32 interface for Win NT & 2000

Used output format              : User Defined Encoder
Selected bitrate                : 768 kBit/s
Quality                         : High
Add ID3 tag                     : No
Command line compressor         : C:\Program Files (x86)\Exact Audio Copy\FLAC\FLAC.EXE
Additional command line options : -6 -V -T "ARTIST=%artist%" -T "TITLE=%title%" -T "ALBUM=%albumtitle%" -T "DATE=%year%" -T "TRACKNUMBER=%tracknr%" -T "GENRE=%genre%" -T "COMMENT=%comment%" -T "BAND=%albuminterpret%" -T "ALBUMARTIST=%albuminterpret%" -T "COMPOSER=%composer%" %haslyrics%--tag-from-file=LYRICS="%lyricsfile%"%haslyrics% -T "DISCNUMBER=%cdnumber%" -T "TOTALDISCS=%totalcds%" -T "TOTALTRACKS=%numtracks%" %hascover%--picture="%coverfile%"%hascover% %source% -o %dest%

TOC of the extracted CD

     Track |   Start  |  Length  | Start sector | End sector
    ---------------------------------------------------------
        1  |  0:00.00 |  9:39.65 |         0    |    43489
        2  |  9:39.65 | 11:13.04 |     43490    |    93968
        3  | 20:52.69 | 17:25.42 |     93969    |   172385
        4  | 38:18.36 | 15:53.01 |    172386    |   243861
        5  | 54:11.37 | 14:41.33 |    243862    |   309969

Range status and errors

Selected range

     Filename D:\EAC\Charlie Parker - Now's The Time - CD7.wav

     Peak level 100.0 %
     Extraction speed 4.3 X
     Range quality 100.0 %
     Copy CRC 740910F9
     Copy OK

No errors occurred

AccurateRip summary

Track  1  accurately ripped (confidence 7)  [9CD36FFD]  (AR v2)
Track  2  accurately ripped (confidence 7)  [C49A33DD]  (AR v2)
Track  3  accurately ripped (confidence 7)  [1CA2B1CF]  (AR v2)
Track  4  accurately ripped (confidence 7)  [78DA1170]  (AR v2)
Track  5  accurately ripped (confidence 7)  [61B75B34]  (AR v2)

All tracks accurately ripped

End of status report
Код:
Код:
REM GENRE Jazz
REM DISCID 2E102405
REM COMMENT "ExactAudioCopy v1.0b3"
PERFORMER "Charlie Parker"
TITLE "Now's The Time - CD7"
FILE "Charlie Parker - Now's The Time - CD7.flac" WAVE
  TRACK 01 AUDIO
    TITLE "Sweet Georgia Brown (part 1 + 2)"
    PERFORMER "Charlie Parker"
    INDEX 01 00:00:00
  TRACK 02 AUDIO
    TITLE "Lady be good (part 1 + 2)"
    PERFORMER "Charlie Parker"
    INDEX 00 09:37:65
    INDEX 01 09:39:65
  TRACK 03 AUDIO
    TITLE "Ballad Medley"
    PERFORMER "Charlie Parker"
    INDEX 00 20:50:69
    INDEX 01 20:52:69
  TRACK 04 AUDIO
    TITLE "What is this thing called love?"
    PERFORMER "Charlie Parker"
    INDEX 00 38:16:36
    INDEX 01 38:18:36
  TRACK 05 AUDIO
    TITLE "Jam blues"
    PERFORMER "Charlie Parker"
    INDEX 00 54:09:37
    INDEX 01 54:11:37
Код:
Код:
foobar2000 1.3.1 / Замер динамического диапазона (DR) 1.1.1
Дата отчёта: 2014-12-15 18:09:14

--------------------------------------------------------------------------------
Анализ:   Charlie Parker / Now's The Time - CD7
--------------------------------------------------------------------------------

DR         Пики          RMS        Продолжительность трека
--------------------------------------------------------------------------------
DR14       0.00 дБ   -17.08 дБ      9:40 01-Sweet Georgia Brown (part 1 + 2)
DR13       0.00 дБ   -17.33 дБ     11:13 02-Lady be good (part 1 + 2)
DR17       0.00 дБ   -21.61 дБ     17:26 03-Ballad Medley
DR16       0.00 дБ   -19.67 дБ     15:53 04-What is this thing called love?
DR16       0.00 дБ   -18.38 дБ     14:41 05-Jam blues
--------------------------------------------------------------------------------

Количество треков:  5
Реальные значения DR:  DR15

Частота:  44100 гц
Каналов:  2
Бит на сэмпл:    16
Битрейт:  600 кбит/с
Кодек:   FLAC
================================================================================

-----------------------

DON'T MODIFY THIS FILE

-----------------------

PERFORMER: auCDtect Task Manager, ver. 1.5.1RC4 build 1.5.1.5
Copyright (c) 2008-2010 y-soft. All rights reserved
http://y-soft.org

ANALYZER: auCDtect: CD records authenticity detector, version 0.8.2
Copyright (c) 2004 Oleg Berngardt. All rights reserved.
Copyright (c) 2004 Alexander Djourik. All rights reserved.

FILE: Charlie Parker - Now's The Time - CD7.flac
Size: 309809236 Hash: 72014C452508B055F8B7A3962B597B66 Accuracy: -m0
Conclusion: CDDA 100%
Signature: 4C025D89E3182ED464681744F38DF9A90580016D
Продолжительность: 00:57:31
Треклист:
01. Mango Mangue [00:02:54]
02. No noise (part 1 + 2) [00:05:52]
03. My little suede shoes [00:03:03]
04. Okiedoke [00:03:02]
05. Un Poquito de tu Amor [00:02:40]
06. Why do I love Your? [00:03:06]
07. Tico-Tico [00:02:43]
08. Fiesta [00:02:49]
09. Afro-cuban Jazz Suite [00:17:13]
10. La Cucaracha [00:02:42]
11. Mama Inez [00:02:49]
12. Estrellita [00:02:43]
13. La Paloma [00:02:39]
14. Begin the beguine [00:03:09]
Код:
Код:
Exact Audio Copy V1.0 beta 3 from 29. August 2011

EAC extraction logfile from 3. December 2014, 15:38

Charlie Parker / Now's The Time - CD8

Used drive  : TSSTcorpCDDVDW SN-208BB   Adapter: 0  ID: 0

Read mode               : Secure
Utilize accurate stream : Yes
Defeat audio cache      : No
Make use of C2 pointers : No

Read offset correction                      : 6
Overread into Lead-In and Lead-Out          : No
Fill up missing offset samples with silence : Yes
Delete leading and trailing silent blocks   : No
Null samples used in CRC calculations       : Yes
Used interface                              : Native Win32 interface for Win NT & 2000

Used output format              : User Defined Encoder
Selected bitrate                : 768 kBit/s
Quality                         : High
Add ID3 tag                     : No
Command line compressor         : C:\Program Files (x86)\Exact Audio Copy\FLAC\FLAC.EXE
Additional command line options : -6 -V -T "ARTIST=%artist%" -T "TITLE=%title%" -T "ALBUM=%albumtitle%" -T "DATE=%year%" -T "TRACKNUMBER=%tracknr%" -T "GENRE=%genre%" -T "COMMENT=%comment%" -T "BAND=%albuminterpret%" -T "ALBUMARTIST=%albuminterpret%" -T "COMPOSER=%composer%" %haslyrics%--tag-from-file=LYRICS="%lyricsfile%"%haslyrics% -T "DISCNUMBER=%cdnumber%" -T "TOTALDISCS=%totalcds%" -T "TOTALTRACKS=%numtracks%" %hascover%--picture="%coverfile%"%hascover% %source% -o %dest%

TOC of the extracted CD

     Track |   Start  |  Length  | Start sector | End sector
    ---------------------------------------------------------
        1  |  0:00.00 |  2:56.16 |         0    |    13215
        2  |  2:56.16 |  5:54.60 |     13216    |    39825
        3  |  8:51.01 |  3:05.26 |     39826    |    53726
        4  | 11:56.27 |  3:04.56 |     53727    |    67582
        5  | 15:01.08 |  2:42.40 |     67583    |    79772
        6  | 17:43.48 |  3:08.01 |     79773    |    93873
        7  | 20:51.49 |  2:45.14 |     93874    |   106262
        8  | 23:36.63 |  2:51.42 |    106263    |   119129
        9  | 26:28.30 | 17:15.62 |    119130    |   196816
       10  | 43:44.17 |  2:44.53 |    196817    |   209169
       11  | 46:28.70 |  2:51.50 |    209170    |   222044
       12  | 49:20.45 |  2:45.26 |    222045    |   234445
       13  | 52:05.71 |  2:41.68 |    234446    |   246588
       14  | 54:47.64 |  3:11.11 |    246589    |   260924

Range status and errors

Selected range

     Filename D:\EAC\Charlie Parker - Now's The Time - CD8.wav

     Peak level 100.0 %
     Extraction speed 4.3 X
     Range quality 100.0 %
     Copy CRC B92D8944
     Copy OK

No errors occurred

AccurateRip summary

Track  1  accurately ripped (confidence 7)  [D99F1335]  (AR v2)
Track  2  accurately ripped (confidence 7)  [10562506]  (AR v2)
Track  3  accurately ripped (confidence 7)  [42414C0C]  (AR v2)
Track  4  accurately ripped (confidence 7)  [DFD69A7C]  (AR v2)
Track  5  accurately ripped (confidence 7)  [783C7A22]  (AR v2)
Track  6  accurately ripped (confidence 7)  [765078EE]  (AR v2)
Track  7  accurately ripped (confidence 7)  [48E1C017]  (AR v2)
Track  8  accurately ripped (confidence 7)  [58845044]  (AR v2)
Track  9  accurately ripped (confidence 7)  [65DEE0CC]  (AR v2)
Track 10  accurately ripped (confidence 7)  [69327840]  (AR v2)
Track 11  accurately ripped (confidence 7)  [A91A6746]  (AR v2)
Track 12  accurately ripped (confidence 7)  [39A9E2A6]  (AR v2)
Track 13  accurately ripped (confidence 7)  [4AE3656D]  (AR v2)
Track 14  accurately ripped (confidence 7)  [C7C73ECB]  (AR v2)

All tracks accurately ripped

End of status report
Код:
Код:
REM GENRE Jazz
REM DISCID C50D970E
REM COMMENT "ExactAudioCopy v1.0b3"
PERFORMER "Charlie Parker"
TITLE "Now's The Time - CD8"
FILE "Charlie Parker - Now's The Time - CD8.flac" WAVE
  TRACK 01 AUDIO
    TITLE "Mango Mangue"
    PERFORMER "Charlie Parker"
    INDEX 01 00:00:00
  TRACK 02 AUDIO
    TITLE "No noise (part 1 + 2)"
    PERFORMER "Charlie Parker"
    INDEX 00 02:54:16
    INDEX 01 02:56:16
  TRACK 03 AUDIO
    TITLE "My little suede shoes"
    PERFORMER "Charlie Parker"
    INDEX 00 08:49:01
    INDEX 01 08:51:01
  TRACK 04 AUDIO
    TITLE "Okiedoke"
    PERFORMER "Charlie Parker"
    INDEX 00 11:54:27
    INDEX 01 11:56:27
  TRACK 05 AUDIO
    TITLE "Un Poquito de tu Amor"
    PERFORMER "Charlie Parker"
    INDEX 00 14:59:08
    INDEX 01 15:01:08
  TRACK 06 AUDIO
    TITLE "Why do I love Your?"
    PERFORMER "Charlie Parker"
    INDEX 00 17:41:48
    INDEX 01 17:43:48
  TRACK 07 AUDIO
    TITLE "Tico-Tico"
    PERFORMER "Charlie Parker"
    INDEX 00 20:49:49
    INDEX 01 20:51:49
  TRACK 08 AUDIO
    TITLE "Fiesta"
    PERFORMER "Charlie Parker"
    INDEX 00 23:34:63
    INDEX 01 23:36:63
  TRACK 09 AUDIO
    TITLE "Afro-cuban Jazz Suite"
    PERFORMER "Charlie Parker"
    INDEX 00 26:26:30
    INDEX 01 26:28:30
  TRACK 10 AUDIO
    TITLE "La Cucaracha"
    PERFORMER "Charlie Parker"
    INDEX 00 43:42:17
    INDEX 01 43:44:17
  TRACK 11 AUDIO
    TITLE "Mama Inez"
    PERFORMER "Charlie Parker"
    INDEX 00 46:26:70
    INDEX 01 46:28:70
  TRACK 12 AUDIO
    TITLE "Estrellita"
    PERFORMER "Charlie Parker"
    INDEX 00 49:18:45
    INDEX 01 49:20:45
  TRACK 13 AUDIO
    TITLE "La Paloma"
    PERFORMER "Charlie Parker"
    INDEX 00 52:03:71
    INDEX 01 52:05:71
  TRACK 14 AUDIO
    TITLE "Begin the beguine"
    PERFORMER "Charlie Parker"
    INDEX 00 54:45:64
    INDEX 01 54:47:64
Код:
Код:
foobar2000 1.3.1 / Замер динамического диапазона (DR) 1.1.1
Дата отчёта: 2014-12-15 18:09:21

--------------------------------------------------------------------------------
Анализ:   Charlie Parker / Now's The Time - CD8
--------------------------------------------------------------------------------

DR         Пики          RMS        Продолжительность трека
--------------------------------------------------------------------------------
DR13       0.00 дБ   -15.92 дБ      2:56 01-Mango Mangue
DR12       0.00 дБ   -14.35 дБ      5:55 02-No noise (part 1 + 2)
DR14       0.00 дБ   -17.90 дБ      3:05 03-My little suede shoes
DR13       0.00 дБ   -14.88 дБ      3:05 04-Okiedoke
DR15       0.00 дБ   -18.19 дБ      2:43 05-Un Poquito de tu Amor
DR14       0.00 дБ   -16.68 дБ      3:08 06-Why do I love Your?
DR16       0.00 дБ   -18.27 дБ      2:45 07-Tico-Tico
DR13       0.00 дБ   -16.32 дБ      2:52 08-Fiesta
DR12       0.00 дБ   -15.76 дБ     17:16 09-Afro-cuban Jazz Suite
DR14       0.00 дБ   -15.40 дБ      2:45 10-La Cucaracha
DR13       0.00 дБ   -15.81 дБ      2:52 11-Mama Inez
DR14       0.00 дБ   -17.21 дБ      2:45 12-Estrellita
DR13       0.00 дБ   -15.50 дБ      2:42 13-La Paloma
DR13       0.00 дБ   -15.69 дБ      3:11 14-Begin the beguine
--------------------------------------------------------------------------------

Количество треков:  14
Реальные значения DR:  DR14

Частота:  44100 гц
Каналов:  2
Бит на сэмпл:    16
Битрейт:  646 кбит/с
Кодек:   FLAC
================================================================================

-----------------------

DON'T MODIFY THIS FILE

-----------------------

PERFORMER: auCDtect Task Manager, ver. 1.5.1RC4 build 1.5.1.5
Copyright (c) 2008-2010 y-soft. All rights reserved
http://y-soft.org

ANALYZER: auCDtect: CD records authenticity detector, version 0.8.2
Copyright (c) 2004 Oleg Berngardt. All rights reserved.
Copyright (c) 2004 Alexander Djourik. All rights reserved.

FILE: Charlie Parker - Now's The Time - CD8.flac
Size: 281175136 Hash: DCFB13F3DE569FBC1787935E84FC3DFC Accuracy: -m0
Conclusion: CDDA 100%
Signature: 2D0B97729B4858AD9BDC546EE73174BC48CE68B3
Продолжительность: 00:51:16
Треклист:
01. The Opener [00:12:38]
02. Lover Man [00:03:21]
03. Swedisch Schnapps [00:03:14]
04. Blues For Alice [00:02:46]
05. K. C. Blues [00:03:24]
06. She Rote [00:03:09]
07. Star Eyes [00:03:33]
08. Funky Blues [00:13:27]
09. I Can't Get Started [00:03:07]
10. What Is This Thing Called Love? [00:02:33]
Код:
Код:
Exact Audio Copy V1.0 beta 3 from 29. August 2011

EAC extraction logfile from 3. December 2014, 15:55

Charlie Parker / CD 09 - Now's The Time

Used drive  : TSSTcorpCDDVDW SN-208BB   Adapter: 0  ID: 0

Read mode               : Secure
Utilize accurate stream : Yes
Defeat audio cache      : No
Make use of C2 pointers : No

Read offset correction                      : 6
Overread into Lead-In and Lead-Out          : No
Fill up missing offset samples with silence : Yes
Delete leading and trailing silent blocks   : No
Null samples used in CRC calculations       : Yes
Used interface                              : Native Win32 interface for Win NT & 2000

Used output format              : User Defined Encoder
Selected bitrate                : 768 kBit/s
Quality                         : High
Add ID3 tag                     : No
Command line compressor         : C:\Program Files (x86)\Exact Audio Copy\FLAC\FLAC.EXE
Additional command line options : -6 -V -T "ARTIST=%artist%" -T "TITLE=%title%" -T "ALBUM=%albumtitle%" -T "DATE=%year%" -T "TRACKNUMBER=%tracknr%" -T "GENRE=%genre%" -T "COMMENT=%comment%" -T "BAND=%albuminterpret%" -T "ALBUMARTIST=%albuminterpret%" -T "COMPOSER=%composer%" %haslyrics%--tag-from-file=LYRICS="%lyricsfile%"%haslyrics% -T "DISCNUMBER=%cdnumber%" -T "TOTALDISCS=%totalcds%" -T "TOTALTRACKS=%numtracks%" %hascover%--picture="%coverfile%"%hascover% %source% -o %dest%

TOC of the extracted CD

     Track |   Start  |  Length  | Start sector | End sector
    ---------------------------------------------------------
        1  |  0:00.00 | 12:40.36 |         0    |    57035
        2  | 12:40.36 |  3:23.34 |     57036    |    72294
        3  | 16:03.70 |  3:16.09 |     72295    |    87003
        4  | 19:20.04 |  2:48.22 |     87004    |    99625
        5  | 22:08.26 |  3:26.35 |     99626    |   115110
        6  | 25:34.61 |  3:11.05 |    115111    |   129440
        7  | 28:45.66 |  3:35.73 |    129441    |   145638
        8  | 32:21.64 | 13:29.23 |    145639    |   206336
        9  | 45:51.12 |  3:09.56 |    206337    |   220567
       10  | 49:00.68 |  2:35.71 |    220568    |   232263

Range status and errors

Selected range

     Filename D:\EAC\Charlie Parker - CD 09 - Now's The Time.wav

     Peak level 100.0 %
     Extraction speed 4.2 X
     Range quality 100.0 %
     Copy CRC F3587C68
     Copy OK

No errors occurred

AccurateRip summary

Track  1  accurately ripped (confidence 7)  [C6077E86]  (AR v2)
Track  2  accurately ripped (confidence 7)  [12EBB141]  (AR v2)
Track  3  accurately ripped (confidence 7)  [9D974D86]  (AR v2)
Track  4  accurately ripped (confidence 7)  [1931A070]  (AR v2)
Track  5  accurately ripped (confidence 7)  [7E898EED]  (AR v2)
Track  6  accurately ripped (confidence 7)  [F895D978]  (AR v2)
Track  7  accurately ripped (confidence 7)  [89B084A4]  (AR v2)
Track  8  accurately ripped (confidence 7)  [C31BE4A9]  (AR v2)
Track  9  accurately ripped (confidence 7)  [7491D447]  (AR v2)
Track 10  accurately ripped (confidence 7)  [1C8171CD]  (AR v2)

All tracks accurately ripped

End of status report
Код:
Код:
REM GENRE Jazz
REM DISCID 890C180A
REM COMMENT "ExactAudioCopy v1.0b3"
PERFORMER "Charlie Parker"
TITLE "CD 09 - Now's The Time"
FILE "Charlie Parker - CD 09 - Now's The Time.flac" WAVE
  TRACK 01 AUDIO
    TITLE "The Opener"
    PERFORMER "Charlie Parker"
    INDEX 01 00:00:00
  TRACK 02 AUDIO
    TITLE "Lover Man"
    PERFORMER "Charlie Parker"
    INDEX 00 12:38:36
    INDEX 01 12:40:36
  TRACK 03 AUDIO
    TITLE "Swedisch Schnapps"
    PERFORMER "Charlie Parker"
    INDEX 00 16:01:70
    INDEX 01 16:03:70
  TRACK 04 AUDIO
    TITLE "Blues For Alice"
    PERFORMER "Charlie Parker"
    INDEX 00 19:18:04
    INDEX 01 19:20:04
  TRACK 05 AUDIO
    TITLE "K. C. Blues"
    PERFORMER "Charlie Parker"
    INDEX 00 22:06:26
    INDEX 01 22:08:26
  TRACK 06 AUDIO
    TITLE "She Rote"
    PERFORMER "Charlie Parker"
    INDEX 00 25:32:61
    INDEX 01 25:34:61
  TRACK 07 AUDIO
    TITLE "Star Eyes"
    PERFORMER "Charlie Parker"
    INDEX 00 28:43:66
    INDEX 01 28:45:66
  TRACK 08 AUDIO
    TITLE "Funky Blues"
    PERFORMER "Charlie Parker"
    INDEX 00 32:19:64
    INDEX 01 32:21:64
  TRACK 09 AUDIO
    TITLE "I Can't Get Started"
    PERFORMER "Charlie Parker"
    INDEX 00 45:49:12
    INDEX 01 45:51:12
  TRACK 10 AUDIO
    TITLE "What Is This Thing Called Love?"
    PERFORMER "Charlie Parker"
    INDEX 00 48:58:68
    INDEX 01 49:00:68
Код:
Код:
foobar2000 1.3.1 / Замер динамического диапазона (DR) 1.1.1
Дата отчёта: 2014-12-15 18:09:28

--------------------------------------------------------------------------------
Анализ:   Charlie Parker / CD 09 - Now's The Time
--------------------------------------------------------------------------------

DR         Пики          RMS        Продолжительность трека
--------------------------------------------------------------------------------
DR15       0.00 дБ   -19.49 дБ     12:40 01-The Opener
DR17       0.00 дБ   -20.66 дБ      3:23 02-Lover Man
DR13       0.00 дБ   -17.70 дБ      3:16 03-Swedisch Schnapps
DR14       0.00 дБ   -17.37 дБ      2:48 04-Blues For Alice
DR16       0.00 дБ   -20.77 дБ      3:26 05-K. C. Blues
DR14      -1.00 дБ   -17.08 дБ      3:11 06-She Rote
DR14       0.00 дБ   -16.47 дБ      3:36 07-Star Eyes
DR16       0.00 дБ   -18.76 дБ     13:29 08-Funky Blues
DR13       0.00 дБ   -15.51 дБ      3:10 09-I Can't Get Started
DR13       0.00 дБ   -15.44 дБ      2:36 10-What Is This Thing Called Love?
--------------------------------------------------------------------------------

Количество треков:  10
Реальные значения DR:  DR14

Частота:  44100 гц
Каналов:  2
Бит на сэмпл:    16
Битрейт:  591 кбит/с
Кодек:   FLAC
================================================================================

-----------------------

DON'T MODIFY THIS FILE

-----------------------

PERFORMER: auCDtect Task Manager, ver. 1.5.1RC4 build 1.5.1.5
Copyright (c) 2008-2010 y-soft. All rights reserved
http://y-soft.org

ANALYZER: auCDtect: CD records authenticity detector, version 0.8.2
Copyright (c) 2004 Oleg Berngardt. All rights reserved.
Copyright (c) 2004 Alexander Djourik. All rights reserved.

FILE: Charlie Parker - CD 09 - Now's The Time.flac
Size: 228714525 Hash: E919C535E363F6B7CD14542F1D43818D Accuracy: -m0
Conclusion: CDDA 99%
Signature: E5009B3F1164C20C24D8ADBFEC435BB311431A76
Продолжительность: 00:54:41
Треклист:
01. Easy To Love [00:03:29]
02. Summertime [00:02:45]
03. I Didn't Know What Time It Was [00:03:11]
04. If I Should Loose You [00:02:45]
05. Just Friends [00:03:30]
06. Everything Happens To Me [00:03:14]
07. I'm In The Mood For Love [00:03:33]
08. I'll Remeber April [00:03:02]
09. Dancing In The Dark [00:03:09]
10. Out Of Nowhere [00:03:06]
11. Laura [00:02:57]
12. East Of The Sun [00:03:38]
13. They Can't Take That Away from Me [00:03:17]
14. Temptation [00:03:30]
15. Lover [00:03:06]
16. Autumn In New York [00:03:28]
17. Stella By Starlight [00:02:54]
Код:
Код:
Exact Audio Copy V1.0 beta 3 from 29. August 2011

EAC extraction logfile from 3. December 2014, 16:12

Charlie Parker / CD10 - Now's The time

Used drive  : TSSTcorpCDDVDW SN-208BB   Adapter: 0  ID: 0

Read mode               : Secure
Utilize accurate stream : Yes
Defeat audio cache      : No
Make use of C2 pointers : No

Read offset correction                      : 6
Overread into Lead-In and Lead-Out          : No
Fill up missing offset samples with silence : Yes
Delete leading and trailing silent blocks   : No
Null samples used in CRC calculations       : Yes
Used interface                              : Native Win32 interface for Win NT & 2000

Used output format              : User Defined Encoder
Selected bitrate                : 768 kBit/s
Quality                         : High
Add ID3 tag                     : No
Command line compressor         : C:\Program Files (x86)\Exact Audio Copy\FLAC\FLAC.EXE
Additional command line options : -6 -V -T "ARTIST=%artist%" -T "TITLE=%title%" -T "ALBUM=%albumtitle%" -T "DATE=%year%" -T "TRACKNUMBER=%tracknr%" -T "GENRE=%genre%" -T "COMMENT=%comment%" -T "BAND=%albuminterpret%" -T "ALBUMARTIST=%albuminterpret%" -T "COMPOSER=%composer%" %haslyrics%--tag-from-file=LYRICS="%lyricsfile%"%haslyrics% -T "DISCNUMBER=%cdnumber%" -T "TOTALDISCS=%totalcds%" -T "TOTALTRACKS=%numtracks%" %hascover%--picture="%coverfile%"%hascover% %source% -o %dest%

TOC of the extracted CD

     Track |   Start  |  Length  | Start sector | End sector
    ---------------------------------------------------------
        1  |  0:00.00 |  3:31.14 |         0    |    15838
        2  |  3:31.14 |  2:47.12 |     15839    |    28375
        3  |  6:18.26 |  3:13.52 |     28376    |    42902
        4  |  9:32.03 |  2:47.67 |     42903    |    55494
        5  | 12:19.70 |  3:32.12 |     55495    |    71406
        6  | 15:52.07 |  3:16.60 |     71407    |    86166
        7  | 19:08.67 |  3:35.30 |     86167    |   102321
        8  | 22:44.22 |  3:04.18 |    102322    |   116139
        9  | 25:48.40 |  3:11.73 |    116140    |   130537
       10  | 29:00.38 |  3:08.08 |    130538    |   144645
       11  | 32:08.46 |  2:59.12 |    144646    |   158082
       12  | 35:07.58 |  3:40.38 |    158083    |   174620
       13  | 38:48.21 |  3:19.34 |    174621    |   189579
       14  | 42:07.55 |  3:32.41 |    189580    |   205520
       15  | 45:40.21 |  3:08.09 |    205521    |   219629
       16  | 48:48.30 |  3:30.43 |    219630    |   235422
       17  | 52:18.73 |  2:56.02 |    235423    |   248624

Range status and errors

Selected range

     Filename D:\EAC\Charlie Parker - CD10 - Now's The time.wav

     Peak level 100.0 %
     Extraction speed 4.3 X
     Range quality 99.9 %
     Copy CRC A2BFABCE
     Copy OK

No errors occurred

AccurateRip summary

Track  1  accurately ripped (confidence 4)  [46513518]  (AR v2)
Track  2  accurately ripped (confidence 4)  [C16FDB40]  (AR v2)
Track  3  accurately ripped (confidence 4)  [DC5E8B2C]  (AR v2)
Track  4  accurately ripped (confidence 4)  [3EEF3CCA]  (AR v2)
Track  5  accurately ripped (confidence 4)  [803B3E40]  (AR v2)
Track  6  accurately ripped (confidence 4)  [9937CDA1]  (AR v2)
Track  7  accurately ripped (confidence 4)  [EBF317AB]  (AR v2)
Track  8  accurately ripped (confidence 4)  [26782A5E]  (AR v2)
Track  9  accurately ripped (confidence 4)  [92576777]  (AR v2)
Track 10  accurately ripped (confidence 4)  [6D6197C7]  (AR v2)
Track 11  accurately ripped (confidence 4)  [38E17090]  (AR v2)
Track 12  accurately ripped (confidence 4)  [B3777DE5]  (AR v2)
Track 13  accurately ripped (confidence 4)  [F98CD2BE]  (AR v2)
Track 14  accurately ripped (confidence 4)  [0994A0D2]  (AR v2)
Track 15  accurately ripped (confidence 4)  [833C6636]  (AR v2)
Track 16  accurately ripped (confidence 4)  [FCEACED7]  (AR v2)
Track 17  accurately ripped (confidence 4)  [F7B4A517]  (AR v2)

All tracks accurately ripped

End of status report
Код:
Код:
REM GENRE Jazz
REM DISCID C90CF311
REM COMMENT "ExactAudioCopy v1.0b3"
PERFORMER "Charlie Parker"
TITLE "CD10 - Now's The time"
FILE "Charlie Parker - CD10 - Now's The time.flac" WAVE
  TRACK 01 AUDIO
    TITLE "Easy To Love"
    PERFORMER "Charlie Parker"
    INDEX 01 00:00:00
  TRACK 02 AUDIO
    TITLE "Summertime"
    PERFORMER "Charlie Parker"
    INDEX 00 03:29:14
    INDEX 01 03:31:14
  TRACK 03 AUDIO
    TITLE "I Didn't Know What Time It Was"
    PERFORMER "Charlie Parker"
    INDEX 00 06:16:26
    INDEX 01 06:18:26
  TRACK 04 AUDIO
    TITLE "If I Should Loose You"
    PERFORMER "Charlie Parker"
    INDEX 00 09:30:03
    INDEX 01 09:32:03
  TRACK 05 AUDIO
    TITLE "Just Friends"
    PERFORMER "Charlie Parker"
    INDEX 00 12:17:70
    INDEX 01 12:19:70
  TRACK 06 AUDIO
    TITLE "Everything Happens To Me"
    PERFORMER "Charlie Parker"
    INDEX 00 15:50:07
    INDEX 01 15:52:07
  TRACK 07 AUDIO
    TITLE "I'm In The Mood For Love"
    PERFORMER "Charlie Parker"
    INDEX 00 19:06:67
    INDEX 01 19:08:67
  TRACK 08 AUDIO
    TITLE "I'll Remeber April"
    PERFORMER "Charlie Parker"
    INDEX 00 22:42:22
    INDEX 01 22:44:22
  TRACK 09 AUDIO
    TITLE "Dancing In The Dark"
    PERFORMER "Charlie Parker"
    INDEX 00 25:46:40
    INDEX 01 25:48:40
  TRACK 10 AUDIO
    TITLE "Out Of Nowhere"
    PERFORMER "Charlie Parker"
    INDEX 00 28:58:38
    INDEX 01 29:00:38
  TRACK 11 AUDIO
    TITLE "Laura"
    PERFORMER "Charlie Parker"
    INDEX 00 32:06:46
    INDEX 01 32:08:46
  TRACK 12 AUDIO
    TITLE "East Of The Sun"
    PERFORMER "Charlie Parker"
    INDEX 00 35:05:58
    INDEX 01 35:07:58
  TRACK 13 AUDIO
    TITLE "They Can't Take That Away from Me"
    PERFORMER "Charlie Parker"
    INDEX 00 38:46:21
    INDEX 01 38:48:21
  TRACK 14 AUDIO
    TITLE "Temptation"
    PERFORMER "Charlie Parker"
    INDEX 00 42:05:55
    INDEX 01 42:07:55
  TRACK 15 AUDIO
    TITLE "Lover"
    PERFORMER "Charlie Parker"
    INDEX 00 45:38:21
    INDEX 01 45:40:21
  TRACK 16 AUDIO
    TITLE "Autumn In New York"
    PERFORMER "Charlie Parker"
    INDEX 00 48:46:30
    INDEX 01 48:48:30
  TRACK 17 AUDIO
    TITLE "Stella By Starlight"
    PERFORMER "Charlie Parker"
    INDEX 00 52:16:73
    INDEX 01 52:18:73
Код:
Код:
foobar2000 1.3.1 / Замер динамического диапазона (DR) 1.1.1
Дата отчёта: 2014-12-15 18:09:35

--------------------------------------------------------------------------------
Анализ:   Charlie Parker / CD10 - Now's The time
--------------------------------------------------------------------------------

DR         Пики          RMS        Продолжительность трека
--------------------------------------------------------------------------------
DR14       0.00 дБ   -16.73 дБ      3:31 01-Easy To Love
DR11       0.00 дБ   -13.49 дБ      2:47 02-Summertime
DR11      -3.33 дБ   -18.50 дБ      3:14 03-I Didn't Know What Time It Was
DR11       0.00 дБ   -14.61 дБ      2:48 04-If I Should Loose You
DR11       0.00 дБ   -14.02 дБ      3:32 05-Just Friends
DR11       0.00 дБ   -15.39 дБ      3:17 06-Everything Happens To Me
DR15       0.00 дБ   -18.26 дБ      3:35 07-I'm In The Mood For Love
DR13       0.00 дБ   -16.98 дБ      3:04 08-I'll Remeber April
DR15       0.00 дБ   -17.09 дБ      3:12 09-Dancing In The Dark
DR14       0.00 дБ   -17.06 дБ      3:08 10-Out Of Nowhere
DR12       0.00 дБ   -16.50 дБ      2:59 11-Laura
DR14       0.00 дБ   -16.96 дБ      3:41 12-East Of The Sun
DR15       0.00 дБ   -21.35 дБ      3:19 13-They Can't Take That Away from Me
DR13       0.00 дБ   -15.12 дБ      3:33 14-Temptation
DR12       0.00 дБ   -14.80 дБ      3:08 15-Lover
DR11       0.00 дБ   -15.53 дБ      3:31 16-Autumn In New York
DR13       0.00 дБ   -16.32 дБ      2:56 17-Stella By Starlight
--------------------------------------------------------------------------------

Количество треков:  17
Реальные значения DR:  DR13

Частота:  44100 гц
Каналов:  2
Бит на сэмпл:    16
Битрейт:  629 кбит/с
Кодек:   FLAC
================================================================================

-----------------------

DON'T MODIFY THIS FILE

-----------------------

PERFORMER: auCDtect Task Manager, ver. 1.5.1RC4 build 1.5.1.5
Copyright (c) 2008-2010 y-soft. All rights reserved
http://y-soft.org

ANALYZER: auCDtect: CD records authenticity detector, version 0.8.2
Copyright (c) 2004 Oleg Berngardt. All rights reserved.
Copyright (c) 2004 Alexander Djourik. All rights reserved.

FILE: Charlie Parker - CD10 - Now's The time.flac
Size: 260693594 Hash: 20C2C82CC23DFB3E24461434A31097D3 Accuracy: -m0
Conclusion: CDDA 100%
Signature: 61D9A8864E87271FD41D9B63A688F6BF83C2A98A

Время раздачи: 24/7
Правила, инструкции, FAQ!!!
Торрент  Добавлен [05 сен 2015, 23:18] Скачать торрент Магнет ссылка
Скачать торрент
[ Размер 18.12 КБ / Просмотров 107 ]

Статус
Проверен 
 
Размер  2.53 ГБ
Приватный: Нет (DHT включён)
.torrent скачан  2
Как залить торрент? | Как скачать Torrent? | Ошибка в торренте? Качайте магнет  


     Отправить личное сообщение
   
Страница 1 из 1
Показать сообщения за:  Поле сортировки  
Начать новую тему Ответить на тему


Сейчас этот форум просматривают: нет зарегистрированных пользователей и гости: 0


Вы не можете начинать темы
Вы не можете отвечать на сообщения
Вы не можете редактировать свои сообщения
Вы не можете удалять свои сообщения
Вы не можете добавлять вложения

Перейти:  
Ресурс не предоставляет электронные версии произведений, а занимается лишь коллекционированием и каталогизацией ссылок, присылаемых и публикуемых на форуме нашими читателями. Если вы являетесь правообладателем какого-либо представленного материала и не желаете чтобы ссылка на него находилась в нашем каталоге, свяжитесь с нами и мы незамедлительно удалим её. Файлы для обмена на трекере предоставлены пользователями сайта, и администрация не несёт ответственности за их содержание. Просьба не заливать файлы, защищенные авторскими правами, а также файлы нелегального содержания!