Начать новую тему Ответить на тему
Статистика раздачи
Размер: 221.91 МБ | Добавлен: 23 май 2019, 20:07 | Скачали: 0
Сидеров: 0  [0 байт/сек]    Личеров: 0  [0 байт/сек]
Пред. тема | След. тема 

Автор
Сообщение

СообщениеДобавлено: 23 май 2019, 20:07 

Ответить с цитатой 

Spider X Featuring M.L.G. ‎ / Jack Attack
Жанр: Breakdance, Freestyle, Trance, Euro-House
Носитель: CDM
Страна-производитель диска: Germany
Год издания: 1998
Издатель (лейбл): CNR Music Germany
Номер по каталогу: 8800449
Страна: Germany
Аудиокодек: FLAC (*.flac)
Тип рипа: image+.cue
Битрейт аудио: lossless
Продолжительность: 00:33:09
Источник (релизер): рип LDE1983
Наличие сканов в содержимом раздачи: нет
Треклист:
1 Jack Attack (Radio Mix)
2 Jack Attack (Video Mix)
3 Jack Attack (Drop Dishes Remix)
4 Jack Attack (DJ Deuce & Marlowe G.'s Houze Remix)
5 Jack Attack (Electro Club Mix)
6 Jack Attack (X-Tended Electro Mix)
Код:
Exact Audio Copy V1.0 beta 3 from 29. August 2011
Отчёт EAC об извлечении, выполненном 21. марта 2014, 14:38
Spider X Featuring M.L.G. / Jack Attack (MCD)
Дисковод: Optiarc DVD RW AD-7240S   Adapter: 0  ID: 0
Режим чтения                 : Достоверность
Использование точного потока : Да
Отключение кэша аудио        : Да
Использование указателей C2  : Нет
Коррекция смещения при чтении                     : 48
Способность читать области Lead-in и Lead-out     : Нет
Заполнение пропущенных сэмплов тишиной            : Да
Удаление блоков с тишиной в начале и конце        : Нет
При вычислениях CRC использовались нулевые сэмплы : Да
Интерфейс                                         : Встроенный Win32-интерфейс для Win NT/2000
Выходной формат          : Пользовательский кодировщик
Выбранный битрейт        : 1024 kBit/s
Качество                 : Высокий
Добавление ID3-тега      : Нет
Утилита сжатия           : C:\Program Files\Exact Audio Copy\Flac\flac.exe
Дополнительные параметры : -V -8 %source%
TOC извлечённого CD
     Трек |   Старт  | Длительность | Начальный сектор | Конечный сектор
    ---------------------------------------------------------------------
       1  |  0:00.00 |    3:50.45   |           0      |      17294
       2  |  3:50.45 |    4:03.09   |       17295      |      35528
       3  |  7:53.54 |    6:03.74   |       35529      |      62827
       4  | 13:57.53 |    7:40.13   |       62828      |      97340
       5  | 21:37.66 |    6:53.37   |       97341      |     128352
       6  | 28:31.28 |    6:14.65   |      128353      |     156467
Характеристики диапазона извлечения и сообщения об ошибках
Выбранный диапазон
     Имя файла C:\Users\mityy\Desktop\Rip LDE1983, club5328816 vk.com\Release\Spider X Featuring M.L.G. - Jack Attack (MCD).wav
     Пиковый уровень 98.8 %
     Скорость извлечения 3.5 X
     Качество диапазона 100.0 %
     CRC теста 6A64CEB4
     CRC копии 6A64CEB4
     Копирование... OK
Ошибок не произошло
AccurateRip: сводка
Трек  1  отсутствует в базе данных
Трек  2  отсутствует в базе данных
Трек  3  отсутствует в базе данных
Трек  4  отсутствует в базе данных
Трек  5  отсутствует в базе данных
Трек  6  отсутствует в базе данных
Ни одного трека нет в базе AccurateRip
Конец отчёта
==== Контрольная сумма отчёта 84CAF00BA970AA3AF199AA4293F68A43246D3E22DF15EF2F2B4BB1FDDECA38FA ====
Код:
REM GENRE Dance
REM DATE 1998
REM DISCID 4E082606
REM COMMENT "ExactAudioCopy v1.0b3"
PERFORMER "Spider X Featuring M.L.G."
TITLE "Jack Attack (MCD)"
FILE "Spider X Featuring M.L.G. - Jack Attack (MCD).flac" WAVE
  TRACK 01 AUDIO
    TITLE "Jack Attack (Radio Mix)"
    PERFORMER "Spider X Featuring M.L.G."
    INDEX 01 00:00:00
  TRACK 02 AUDIO
    TITLE "Jack Attack (Video Mix)"
    PERFORMER "Spider X Featuring M.L.G."
    INDEX 01 03:50:45
  TRACK 03 AUDIO
    TITLE "Jack Attack (Drop Dishes Remix)"
    PERFORMER "Spider X Featuring M.L.G."
    INDEX 01 07:53:54
  TRACK 04 AUDIO
    TITLE "Jack Attack (DJ Deuce & Mariowe G.'s Houze Remix)"
    PERFORMER "Spider X Featuring M.L.G."
    INDEX 01 13:57:53
  TRACK 05 AUDIO
    TITLE "Jack Attack (Electro Club Mix)"
    PERFORMER "Spider X Featuring M.L.G."
    INDEX 01 21:37:66
  TRACK 06 AUDIO
    TITLE "Jack Attack (X-Tended Electro Mix)"
    PERFORMER "Spider X Featuring M.L.G."
    INDEX 01 28:31:28
Доп. информация: http://www.discogs.com/Spider-X-Featuring-MLG-Jack-Attack/release/2021448
Правила, инструкции, FAQ!!!
Торрент  Добавлен [23 май 2019, 20:07] Скачать торрент Магнет ссылка
Скачать торрент
[ Размер 18.1 КБ / Просмотров 5 ]

Статус
Проверен 
 
Размер  221.91 МБ
Приватный: Нет (DHT включён)
.torrent скачан  0
Как залить торрент? | Как скачать Torrent? | Ошибка в торренте? Качайте магнет  


     Отправить личное сообщение
   
Страница 1 из 1
Показать сообщения за:  Поле сортировки  
Начать новую тему Ответить на тему


Сейчас этот форум просматривают: нет зарегистрированных пользователей и гости: 0


Вы не можете начинать темы
Вы не можете отвечать на сообщения
Вы не можете редактировать свои сообщения
Вы не можете удалять свои сообщения
Вы не можете добавлять вложения

Перейти:  
Ресурс не предоставляет электронные версии произведений, а занимается лишь коллекционированием и каталогизацией ссылок, присылаемых и публикуемых на форуме нашими читателями. Если вы являетесь правообладателем какого-либо представленного материала и не желаете чтобы ссылка на него находилась в нашем каталоге, свяжитесь с нами и мы незамедлительно удалим её. Файлы для обмена на трекере предоставлены пользователями сайта, и администрация не несёт ответственности за их содержание. Просьба не заливать файлы, защищенные авторскими правами, а также файлы нелегального содержания!
cron