Начать новую тему Ответить на тему
Статистика раздачи
Размер: 480.56 МБ | Добавлен: 03 июн 2019, 21:15 | Скачали: 0
Сидеров: 0  [0 байт/сек]    Личеров: 0  [0 байт/сек]
Пред. тема | След. тема 

Автор
Сообщение

СообщениеДобавлено: 03 июн 2019, 21:15 

Ответить с цитатой 

Art Pepper & Blue Mitchell / The Dolo Coker Sessions
Жанр: Bop, Cool Jazz
Носитель: CD
Страна-производитель диска (релиза): EU
Год издания: 1976
Издатель (лейбл): Synergy Records
Номер по каталогу: SRCD 55304
Страна исполнителя (группы): USA
Аудиокодек: FLAC (*.flac)
Тип рипа: image+.cue
Битрейт аудио: lossless
Продолжительность: 71:21
Источник (релизер): nkomissar
Наличие сканов в содержимом раздачи: да
Треклист:
1. Jumping Jacks (4:08)
2. Gone With The Wind (4:28)
3. Roots 4FB (15:00)
4. Mr. Yohe (6:24)
5. Tale Of Two Cities (6:29)
6. Dolo (7:26)
7. Affair In Havana (6:50)
8. Lady Hawthorne, Please (6:43)
9. Field Day (8:11)
10. Smack Up (5:37)
Код:
Exact Audio Copy V0.99 prebeta 4 from 23. January 2008
EAC extraction logfile from 1. July 2011, 23:42
Art Pepper & Blue Mitchell / The Dolo Coker Sessions
Used drive  : TSSTcorpDVD+-RW TS-L632D   Adapter: 1  ID: 0
Read mode               : Secure
Utilize accurate stream : Yes
Defeat audio cache      : Yes
Make use of C2 pointers : No
Read offset correction                      : 6
Overread into Lead-In and Lead-Out          : No
Fill up missing offset samples with silence : Yes
Delete leading and trailing silent blocks   : No
Null samples used in CRC calculations       : Yes
Used interface                              : Native Win32 interface for Win NT & 2000
Used output format              : User Defined Encoder
Selected bitrate                : 320 kBit/s
Quality                         : High
Add ID3 tag                     : No
Command line compressor         : C:\Program Files\Exact Audio Copy\FLAC\FLAC.EXE
Additional command line options : -8 -V %s
TOC of the extracted CD
     Track |   Start  |  Length  | Start sector | End sector
    ---------------------------------------------------------
        1  |  0:00.00 |  4:07.00 |         0    |    18524
        2  |  4:07.00 |  4:28.00 |     18525    |    38624
        3  |  8:35.00 | 14:58.38 |     38625    |   106012
        4  | 23:33.38 |  6:25.00 |    106013    |   134887
        5  | 29:58.38 |  6:31.00 |    134888    |   164212
        6  | 36:29.38 |  7:26.00 |    164213    |   197662
        7  | 43:55.38 |  6:51.00 |    197663    |   228487
        8  | 50:46.38 |  6:45.00 |    228488    |   258862
        9  | 57:31.38 |  8:13.00 |    258863    |   295837
       10  | 65:44.38 |  5:36.00 |    295838    |   321037
Range status and errors
Selected range
     Filename C:\Music\Раздачи\Art Pepper & Blue Mitchell - The Dolo Coker Sessions\Art Pepper & Blue Mitchell - The Dolo Coker Sessions.wav
     Peak level 99.6 %
     Range quality 100.0 %
     Test CRC E75483AD
     Copy CRC E75483AD
     Copy OK
No errors occurred
AccurateRip summary
Track  1  not present in database
Track  2  not present in database
Track  3  not present in database
Track  4  not present in database
Track  5  not present in database
Track  6  not present in database
Track  7  not present in database
Track  8  not present in database
Track  9  not present in database
Track 10  not present in database
None of the tracks are present in the AccurateRip database
End of status report
Код:
REM GENRE Bebop
REM DATE 1976
REM DISCID 8510B80A
REM COMMENT "ExactAudioCopy v0.99pb4"
PERFORMER "Art Pepper & Blue Mitchell"
TITLE "The Dolo Coker Sessions"
FILE "Art Pepper & Blue Mitchell - The Dolo Coker Sessions.flac" WAVE
  TRACK 01 AUDIO
    TITLE "Jumping Jacks"
    PERFORMER "Art Pepper & Blue Mitchell"
    INDEX 01 00:00:00
  TRACK 02 AUDIO
    TITLE "Gone With The Wind"
    PERFORMER "Art Pepper & Blue Mitchell"
    INDEX 01 04:07:00
  TRACK 03 AUDIO
    TITLE "Roots 4FB"
    PERFORMER "Art Pepper & Blue Mitchell"
    INDEX 01 08:35:00
  TRACK 04 AUDIO
    TITLE "Mr. Yohe"
    PERFORMER "Art Pepper & Blue Mitchell"
    INDEX 01 23:33:38
  TRACK 05 AUDIO
    TITLE "Tale of Two Cities"
    PERFORMER "Art Pepper & Blue Mitchell"
    INDEX 01 29:58:38
  TRACK 06 AUDIO
    TITLE "Dolo"
    PERFORMER "Art Pepper & Blue Mitchell"
    INDEX 01 36:29:38
  TRACK 07 AUDIO
    TITLE "Affair in Havanna"
    PERFORMER "Art Pepper & Blue Mitchell"
    INDEX 01 43:55:38
  TRACK 08 AUDIO
    TITLE "Lady Hawthorne, Please"
    PERFORMER "Art Pepper & Blue Mitchell"
    INDEX 01 50:46:38
  TRACK 09 AUDIO
    TITLE "Field Day"
    PERFORMER "Art Pepper & Blue Mitchell"
    INDEX 01 57:31:38
  TRACK 10 AUDIO
    TITLE "Smack Up"
    PERFORMER "Art Pepper & Blue Mitchell"
    INDEX 01 65:44:38
Alto Saxophone – Art Pepper (tracks: 2, 4, 5)
Bass – Leroy Vinnegar
Drums – Frank Butler
Flugelhorn – Blue Mitchell (tracks: 2, 5)
Liner Notes – Will Rosen
Piano – Dolo Coker
Tenor Saxophone – Art Pepper (tracks: 1, 3), Harold Land (tracks: 6 to 10)
Trumpet – Blue Mitchell (tracks: 1, 3, 4, 6 to 10)
Правила, инструкции, FAQ!!!
Торрент  Добавлен [03 июн 2019, 21:15] Скачать торрент Магнет ссылка
Скачать торрент
[ Размер 39.47 КБ / Просмотров 9 ]

Статус
Проверен 
 
Размер  480.56 МБ
Приватный: Нет (DHT включён)
.torrent скачан  0
Как залить торрент? | Как скачать Torrent? | Ошибка в торренте? Качайте магнет  


     Отправить личное сообщение
   
Страница 1 из 1
Показать сообщения за:  Поле сортировки  
Начать новую тему Ответить на тему


Сейчас этот форум просматривают: нет зарегистрированных пользователей и гости: 2


Вы не можете начинать темы
Вы не можете отвечать на сообщения
Вы не можете редактировать свои сообщения
Вы не можете удалять свои сообщения
Вы не можете добавлять вложения

Перейти:  
Ресурс не предоставляет электронные версии произведений, а занимается лишь коллекционированием и каталогизацией ссылок, присылаемых и публикуемых на форуме нашими читателями. Если вы являетесь правообладателем какого-либо представленного материала и не желаете чтобы ссылка на него находилась в нашем каталоге, свяжитесь с нами и мы незамедлительно удалим её. Файлы для обмена на трекере предоставлены пользователями сайта, и администрация не несёт ответственности за их содержание. Просьба не заливать файлы, защищенные авторскими правами, а также файлы нелегального содержания!