Начать новую тему Ответить на тему
Статистика раздачи
Размер: 334.34 МБ | Добавлен: 22 апр 2019, 21:47 | Скачали: 0
Сидеров: 3  [0 байт/сек]    Личеров: 1  [0 байт/сек]
Пред. тема | След. тема 

Автор
Сообщение

СообщениеДобавлено: 22 апр 2019, 21:47 

Ответить с цитатой 

Various Artists - The Very Best of Blues Brother Soul Sister (CD two of 2)
Жанр: blues \\ soul
Год выпуска диска: 1995
Производитель диска: UK (Dino Entertainment)
Аудио кодек: FLAC
Тип рипа: image+.cue
Битрейт аудио: lossless
Продолжительность: 62:55
Трэклист:
1. Martha Reeves & The Vandellas - Dancing In The Street
2. Booker T And The MG`s - Green Onions
3. Aretha Franklin - Think
4. Muddy Waters - Got My Mojo Working
5. John Lee Hooker - I`m In The Mood
6. Al Green - Take Me To The River
7. The Staple Singers - I`ll Take You There
8. Ray Charles - What`d I Say
9. Dobie Gray - Drift Away
10. Etta James - I`d Rather Go Blind
11. B.B. King - The Thrill Is Gone
12. Jr Walker & The All Stars - I`m A Road Runner
13. Eddie Floyd - Knock On Wood
14. Smokie Robinson - Going To A Go Go
15. Howlin` Wolf - Little Red Rooster
16. Tommy Tucker - High Heel Sneakers
17. Maxine Brown - Oh No, Not My Baby
18. Nina Simone - I Put A Spell On You
19. Dorothy Moore - Misty Blue
20. Otis Redding - The Dock Of The Bay
Доп. информация:
Exact Audio Copy V0.99 prebeta 4 from 23. January 2008
Отчёт EAC об извлечении, выполненном 20. августа 2009, 7:43
Various / The Very Best Of Blues Brother Soul Sister (Disc 2)
Дисковод: Optiarc DVD RW AD-7191S Adapter: 3 ID: 0
Режим чтения : Достоверность
Использование точного потока : Да
Отключение кэша аудио : Да
Использование указателей C2 : Нет
Коррекция смещения при чтении : 6
Способность читать области Lead-in и Lead-out : Нет
Заполнение пропущенных сэмплов тишиной : Да
Удаление блоков с тишиной в начале и конце : Нет
При вычислениях CRC использовались нулевые сэмплы : Да
Интерфейс : Встроенный Win32-интерфейс для Win NT/2000
Выходной формат : Пользовательский кодировщик
Выбранный битрейт : 768 kBit/s
Качество : Высокий
Добавление ID3-тэга : Нет
Утилита сжатия : E:\Programs\Exact Audio Copy\FLAC\FLAC.EXE
Дополнительные параметры : -6 -V -T "ARTIST=%a" -T "TITLE=%t" -T "ALBUM=%g" -T "DATE=%y" -T "TRACKNUMBER=%n" -T "GENRE=%m" -T "COMMENT=%e" %s -o %d
TOC извлечённого CD
Трек | Старт | Длительность | Начальный сектор | Конечный сектор
---------------------------------------------------------------------
1 | 0:00.32 | 2:40.33 | 32 | 12064
2 | 2:40.65 | 2:52.50 | 12065 | 25014
3 | 5:33.40 | 2:18.02 | 25015 | 35366
4 | 7:51.42 | 2:46.50 | 35367 | 47866
5 | 10:38.17 | 2:44.40 | 47867 | 60206
6 | 13:22.57 | 3:42.00 | 60207 | 76856
7 | 17:04.57 | 4:44.65 | 76857 | 98221
8 | 21:49.47 | 4:25.10 | 98222 | 118106
9 | 26:14.57 | 3:31.70 | 118107 | 134001
10 | 29:46.52 | 2:36.08 | 134002 | 145709
11 | 32:22.60 | 4:58.62 | 145710 | 168121
12 | 37:21.47 | 2:47.68 | 168122 | 180714
13 | 40:09.40 | 3:03.72 | 180715 | 194511
14 | 43:13.37 | 2:47.35 | 194512 | 207071
15 | 46:00.72 | 2:27.28 | 207072 | 218124
16 | 48:28.25 | 2:50.67 | 218125 | 230941
17 | 51:19.17 | 2:42.13 | 230942 | 243104
18 | 54:01.30 | 2:35.70 | 243105 | 254799
19 | 56:37.25 | 3:34.27 | 254800 | 270876
20 | 60:11.52 | 2:42.00 | 270877 | 283026
Характеристики диапазона извлечения и сообщения об ошибках
Выбранный диапазон
Имя файла C:\Documents and Settings\maddriver\Рабочий стол\lossless\Various - The Very Best Of Blues Brother Soul Sister (Disc 2).wav
Пиковый уровень 93.0 %
Качество диапазона 100.0 %
CRC теста E0EBD9EF
CRC копии E0EBD9EF
Копирование... OK
Ошибок не произошло
AccurateRip: сводка
Трек 1 точность не определена (достоверность 2) [81603FE6], AccurateRip вернул [C51DF0C0]
Трек 2 точность не определена (достоверность 3) [A92816D1], AccurateRip вернул [D6B52F63]
Трек 3 точность не определена (достоверность 2) [3A7F1711], AccurateRip вернул [21EBE68D]
Трек 4 точность не определена (достоверность 3) [C92DAF2B], AccurateRip вернул [41AC4157]
Трек 5 точность не определена (достоверность 3) [0B517B09], AccurateRip вернул [76B4231F]
Трек 6 точность не определена (достоверность 3) [11D0AD3B], AccurateRip вернул [81D636D5]
Трек 7 точность не определена (достоверность 3) [08D36D75], AccurateRip вернул [09B5455D]
Трек 8 точность не определена (достоверность 2) [32F0773F], AccurateRip вернул [FF6EB2AF]
Трек 9 точность не определена (достоверность 3) [39532B97], AccurateRip вернул [C3AEB2B9]
Трек 10 точность не определена (достоверность 3) [0B9AFDD9], AccurateRip вернул [9DB85191]
Трек 11 точность не определена (достоверность 3) [4F7CA4F6], AccurateRip вернул [E0CF05F6]
Трек 12 точность не определена (достоверность 3) [41B86620], AccurateRip вернул [076C35D0]
Трек 13 точность не определена (достоверность 2) [807BED55], AccurateRip вернул [AC8342B9]
Трек 14 точность не определена (достоверность 3) [2D7C2BCD], AccurateRip вернул [DD7CF589]
Трек 15 точность не определена (достоверность 3) [EF47A5FD], AccurateRip вернул [11631B63]
Трек 16 точность не определена (достоверность 3) [1D640E98], AccurateRip вернул [DC38854E]
Трек 17 точность не определена (достоверность 2) [D08920A8], AccurateRip вернул [45010650]
Трек 18 точность не определена (достоверность 2) [E3B0F4E8], AccurateRip вернул [ABD9BF46]
Трек 19 нет в базе данных
Трек 20 точность не определена (достоверность 2) [6891DE35], AccurateRip вернул [86C1E04D]
19 трек(и) не удалось проверить на точность
1 трек(и) не содержатся в базе AccurateRip
Ни один трек не прошёл проверки на точность
В вашей базе может быть иной вариант штамповки диска
Конец отчёта
Оцифровано собственноручно с оригинального диска.
The Very Best of Blues Brother Soul Sister (CD one of 2)
не стесняемся говорить спасибо
вам мелочь, а мне приятно
МОИ РАЗДАЧИ
желаю приятного просмотра и прослушивания!!!
Правила, инструкции, FAQ!!!
Торрент  Добавлен [22 апр 2019, 21:47] Скачать торрент Магнет ссылка
Скачать торрент
[ Размер 13.8 КБ / Просмотров 9 ]

Статус
Проверен 
 
Размер  334.34 МБ
Приватный: Нет (DHT включён)
.torrent скачан  0
Как залить торрент? | Как скачать Torrent? | Ошибка в торренте? Качайте магнет  


     Отправить личное сообщение
   
Страница 1 из 1
Показать сообщения за:  Поле сортировки  
Начать новую тему Ответить на тему


Сейчас этот форум просматривают: нет зарегистрированных пользователей и гости: 0


Вы не можете начинать темы
Вы не можете отвечать на сообщения
Вы не можете редактировать свои сообщения
Вы не можете удалять свои сообщения
Вы не можете добавлять вложения

Перейти:  
Ресурс не предоставляет электронные версии произведений, а занимается лишь коллекционированием и каталогизацией ссылок, присылаемых и публикуемых на форуме нашими читателями. Если вы являетесь правообладателем какого-либо представленного материала и не желаете чтобы ссылка на него находилась в нашем каталоге, свяжитесь с нами и мы незамедлительно удалим её. Файлы для обмена на трекере предоставлены пользователями сайта, и администрация не несёт ответственности за их содержание. Просьба не заливать файлы, защищенные авторскими правами, а также файлы нелегального содержания!
cron